<?xml version="1.0" standalone="no"?>
<!DOCTYPE svg PUBLIC "-//W3C//DTD SVG 1.1//EN" "http://www.w3.org/Graphics/SVG/1.1/DTD/svg11.dtd" >
<svg>
<metadata>
Created by FontForge 20110222 at Tue May 13 09:47:35 2014
 By Orthosie Webhosting
Copyright (c) 1987, 1991, 1992, 1993 Adobe Systems Incorporated.  All Rights Reserved.Futura is a registered trademark of Fundicion Tipografica Neufville S.A.
</metadata>
<defs>
<font id="FuturaCondensedMediumMedium" horiz-adv-x="411" >
  <font-face 
    font-family="FuturaCondensedMediumMedium"
    font-weight="500"
    font-stretch="expanded"
    units-per-em="1000"
    panose-1="2 11 6 0 0 0 0 0 0 0"
    ascent="800"
    descent="-200"
    x-height="505"
    cap-height="754"
    bbox="-108 -216 893 969"
    underline-thickness="50"
    underline-position="-50"
    unicode-range="U+0020-2122"
  />
<missing-glyph horiz-adv-x="502" 
d="M-1 0h500v500h-500v-500zM9 10v480h480v-480h-480z" />
    <glyph glyph-name=".notdef" horiz-adv-x="502" 
d="M-1 0h500v500h-500v-500zM9 10v480h480v-480h-480z" />
    <glyph glyph-name=".null" horiz-adv-x="0" 
 />
    <glyph glyph-name="nonmarkingreturn" horiz-adv-x="333" 
 />
    <glyph glyph-name="space" unicode=" " horiz-adv-x="205" 
 />
    <glyph glyph-name="exclam" unicode="!" horiz-adv-x="252" 
d="M126 -8q25 0 42.5 17.5t17.5 42.5t-17.5 42.5t-42.5 17.5t-42.5 -17.5t-17.5 -42.5t17.5 -42.5t42.5 -17.5zM77 754v-573h100v573h-100z" />
    <glyph glyph-name="quotedbl" unicode="&#x22;" horiz-adv-x="250" 
d="M29 528h62l12 226h-86zM160 528h62l12 226h-86z" />
    <glyph glyph-name="numbersign" unicode="#" 
d="M-12 0h55l81 258h87l-79 -258h55l79 258h115l15 59h-112l38 124h112l17 59h-111l78 254h-56l-77 -254h-88l78 254h-55l-79 -254h-109l-17 -59h109l-38 -124h-108l-17 -59h107zM142 317l37 124h88l-38 -124h-87z" />
    <glyph glyph-name="dollar" unicode="$" 
d="M182 819v-65q-75 -7 -113.5 -58.5t-38.5 -128.5q0 -46 9.5 -79t28.5 -57.5t45.5 -45t69.5 -47.5q8 -5 21 -13q45 -29 63.5 -53t18.5 -75q0 -50 -19 -81.5t-64 -31.5q-34 0 -55 18t-30 52l-83 -40q19 -55 53.5 -82t93.5 -32v-67h45v67q44 5 74.5 23t48 46.5t25 64
t7.5 77.5q0 43 -8 73.5t-24 52.5t-39 40t-65 44l-17 11q-55 34 -79 61.5t-24 78.5q0 44 19.5 71t62.5 27q34 0 58 -20.5t30 -52.5l77 46q-14 51 -52 79t-94 32v65h-45z" />
    <glyph glyph-name="percent" unicode="%" horiz-adv-x="553" 
d="M149 763q-35 0 -57 -16.5t-32.5 -43t-14 -56t-3.5 -63.5t3.5 -63t14 -56t32.5 -43.5t57 -16.5t57 17t32.5 43.5t14 55.5t3.5 63t-3.5 63.5t-14 56t-32.5 43t-57 16.5zM149 465q-13 0 -21 10t-12 26.5t-5.5 36.5t-1.5 46q0 25 1.5 45t5.5 37t12 27t21 10t21.5 -10
t12.5 -28q6 -27 6 -81q0 -26 -1.5 -46t-5.5 -36.5t-12 -26.5t-21 -10zM432 754l-374 -754h62l374 754h-62zM403 349q-35 0 -57 -16.5t-32.5 -43t-14 -56t-3.5 -63.5t3.5 -63t14 -56t32.5 -43.5t57 -16.5t57 17t32.5 43.5t14 55.5t3.5 63t-3.5 63.5t-14 56t-32.5 43t-57 16.5
zM403 289q13 0 21.5 -10t12.5 -28q6 -26 6 -80q0 -26 -1.5 -46t-4.5 -35q-9 -39 -34 -39t-32.5 32.5t-7.5 87.5q0 25 1.5 45t5.5 36.5t12 26.5t21 10z" />
    <glyph glyph-name="ampersand" unicode="&#x26;" horiz-adv-x="494" 
d="M204 441q-5 11 -10 19q-16 33 -24 54t-8 45q0 25 17 45.5t42 20.5q26 0 40.5 -17t14.5 -43q0 -33 -17 -59t-50 -59zM282 128q-15 -24 -33.5 -38t-42.5 -14q-37 0 -61 32t-24 74q0 35 14.5 62.5t42.5 57.5zM360 0h111l-80 126l80 112l-64 52l-62 -88l-99 164
q53 52 82.5 97.5t29.5 101.5q0 64 -40 100t-104 36q-63 0 -103.5 -40.5t-40.5 -103.5q0 -43 16.5 -90t43.5 -87q-48 -48 -76.5 -97t-28.5 -105q0 -36 13 -70.5t35.5 -60.5t53.5 -41.5t67 -15.5q39 0 73 18t57 51z" />
    <glyph glyph-name="quotesingle" unicode="'" horiz-adv-x="250" 
d="M94 528h62l12 226h-86z" />
    <glyph glyph-name="parenleft" unicode="(" horiz-adv-x="276" 
d="M130 764q-44 -101 -66.5 -211t-22.5 -221t23 -225t66 -220l93 24q-41 106 -64 215t-23 212q0 93 23.5 195.5t63.5 207.5z" />
    <glyph glyph-name="parenright" unicode=")" horiz-adv-x="276" 
d="M235 332q0 111 -22.5 221t-66.5 211l-93 -23q40 -105 63.5 -207.5t23.5 -195.5q0 -103 -23 -212t-64 -215l93 -24q43 106 66 220t23 225z" />
    <glyph glyph-name="asterisk" unicode="*" horiz-adv-x="357" 
d="M157 754l4 -133l-113 66l-19 -36l113 -60l-113 -64l23 -34l109 70l-4 -132h43l-4 129l111 -67l21 34l-116 64l116 66l-21 34l-111 -70v133h-39z" />
    <glyph glyph-name="plus" unicode="+" horiz-adv-x="500" 
d="M215 291h-171v-70h171v-219h70v219h172v70h-172v216h-70v-216z" />
    <glyph glyph-name="comma" unicode="," horiz-adv-x="205" 
d="M76 106l-67 -276l51 -14l97 265z" />
    <glyph glyph-name="hyphen" unicode="-" horiz-adv-x="242" 
d="M32 297v-76h178v76h-178z" />
    <glyph glyph-name="period" unicode="." horiz-adv-x="205" 
d="M103 -8q25 0 42.5 18t17.5 43q0 24 -17.5 41.5t-42.5 17.5t-42.5 -17.5t-17.5 -41.5q0 -25 17.5 -43t42.5 -18z" />
    <glyph glyph-name="slash" unicode="/" horiz-adv-x="407" 
d="M358 830l-387 -933h81l385 933h-79z" />
    <glyph glyph-name="zero" unicode="0" 
d="M206 763q-58 0 -93.5 -34.5t-52 -91t-21 -118t-4.5 -142.5t4.5 -142.5t21 -117.5t52 -91t93.5 -35t93.5 35t52 91t21 117.5t4.5 142.5t-4.5 143t-21 117.5t-52 90.5t-93.5 35zM279 377q0 -74 -2.5 -125.5t-10 -90t-22.5 -59.5t-38 -21t-38 21t-22.5 59.5t-10 90
t-2.5 125.5t2.5 125.5t10 90t22.5 59.5t38 21t38 -21t22.5 -59.5t10 -90t2.5 -125.5z" />
    <glyph glyph-name="one" unicode="1" 
d="M83 754v-87h74v-667h98v754h-172z" />
    <glyph glyph-name="two" unicode="2" 
d="M47 509h102v20v11v21q0 20 2 39t8 35.5t17.5 27t30.5 10.5q36 0 51.5 -26.5t15.5 -63.5q0 -45 -14 -91.5t-40 -104.5l-183 -387h332v87h-187l64 122q24 45 45.5 89t41 94t31.5 97.5t12 87.5q0 92 -39 139t-129 47q-52 0 -85 -17.5t-49 -48.5t-21.5 -69.5t-5.5 -91.5v-27z
" />
    <glyph glyph-name="three" unicode="3" 
d="M182 347q28 0 46 -10t27 -27.5t12.5 -39t3.5 -48.5q0 -28 -1.5 -49t-8 -42.5t-21.5 -35.5t-40 -14q-33 0 -48 24t-15 60v24h-96v-23q0 -86 38 -130.5t121 -44.5q50 0 83.5 17t53.5 47.5t28 70.5t8 88q0 32 -3 58.5t-13 50t-28.5 40.5t-48.5 25v2q28 9 45.5 27t25.5 43
t10.5 50t2.5 58q0 44 -7.5 79t-24.5 61t-48 40.5t-77 14.5q-49 0 -79.5 -15t-46 -42.5t-21 -63t-5.5 -83.5v-7h96v23q0 18 2 34.5t8.5 31t18.5 23.5t30 9q20 0 32.5 -12.5t18 -31t6.5 -36.5t1 -41q0 -65 -20.5 -90t-82.5 -25h-12v-90h29z" />
    <glyph glyph-name="four" unicode="4" 
d="M330 754h-98l-203 -461v-86h203v-207h98v207h48v74h-48v473zM232 281h-124l122 320h2v-320z" />
    <glyph glyph-name="five" unicode="5" 
d="M121 754l-44 -366q36 9 61 9q68 0 99.5 -39.5t31.5 -108.5q0 -27 -5.5 -56.5t-18.5 -54.5t-35.5 -41t-53.5 -16q-21 0 -38 6t-43 20l-7 4l-26 -89q34 -15 60.5 -23t56.5 -8q58 0 99 22.5t66 61t36 87t11 103.5q0 98 -48.5 155t-148.5 57l24 190h163v87h-240z" />
    <glyph glyph-name="six" unicode="6" 
d="M196 754l-17 -35q-38 -78 -59.5 -126.5t-39 -103t-27.5 -114.5t-10 -129q0 -51 5.5 -94t22 -80t50 -59t85.5 -22q53 0 86 19.5t49 52.5t21.5 73t5.5 91q0 45 -3.5 83t-16.5 73.5t-40.5 58t-71.5 22.5q-22 0 -40.5 -8.5t-36.5 -25.5l-2 2l147 322h-108zM266 226
q0 -24 -1.5 -46t-7 -45t-18 -38.5t-32.5 -15.5q-21 0 -34 15.5t-19 39t-7.5 45.5t-1.5 46q0 50 6.5 80.5t16 45t19 18t20.5 3.5q20 0 32.5 -14t18 -36t7 -46t1.5 -52z" />
    <glyph glyph-name="seven" unicode="7" 
d="M38 754v-87h210l-210 -667h108l229 754h-337z" />
    <glyph glyph-name="eight" unicode="8" 
d="M205 81q-20 0 -32.5 12.5t-18.5 32t-7.5 39t-1.5 42.5q0 29 1.5 53t7.5 46t18.5 35.5t32.5 13.5q21 0 34 -14t19 -36.5t7.5 -45.5t1.5 -52q0 -22 -1.5 -42t-7.5 -39t-19 -32t-34 -13zM132 408q-31 -8 -49.5 -28t-27 -47.5t-10.5 -56t-2 -64.5q0 -46 7 -84.5t25 -69.5
t50 -49t81 -18q51 0 83.5 19.5t50 52.5t23.5 73.5t6 89.5q0 32 -3 59.5t-12 52.5t-27.5 44t-46.5 26v2v-1q25 9 41.5 26.5t25.5 40.5t12 48t3 54q0 95 -36.5 140t-126.5 45q-43 0 -72 -14t-46.5 -38.5t-24.5 -58t-7 -74.5q0 -28 3.5 -53.5t12 -48.5t25 -40.5t42.5 -25.5v-2z
M206 453q-17 0 -28.5 12t-17.5 30.5t-8 37.5t-2 35q0 17 2 34.5t7.5 33.5t17 26.5t29.5 10.5t29 -10.5t16.5 -27t7.5 -33.5t2 -34q0 -16 -2 -35t-7.5 -37.5t-17 -30.5t-28.5 -12z" />
    <glyph glyph-name="nine" unicode="9" 
d="M211 0l44 90q29 61 49 108t34.5 96t22 101t7.5 112q0 54 -5 96.5t-21 79t-49.5 58.5t-87.5 22t-87 -22t-49 -59t-20.5 -79.5t-4.5 -96.5q0 -41 4.5 -77t18 -69t40 -53t67.5 -20q25 0 42 7t34 23l2 -2l-150 -315h109zM205 377q-20 0 -32.5 14.5t-18 36.5t-7 43.5
t-1.5 49.5t1.5 51t7 46.5t18 39t32.5 15.5q21 0 34 -15.5t18.5 -38.5t7 -45.5t1.5 -46.5q0 -31 -1.5 -55.5t-7.5 -46t-18.5 -35t-33.5 -13.5z" />
    <glyph glyph-name="colon" unicode=":" horiz-adv-x="205" 
d="M103 -8q25 0 42.5 18t17.5 43q0 24 -17.5 41.5t-42.5 17.5t-42.5 -17.5t-17.5 -41.5q0 -25 17.5 -43t42.5 -18zM103 392q25 0 42.5 18t17.5 43q0 24 -17.5 41.5t-42.5 17.5t-42.5 -17.5t-17.5 -41.5q0 -25 17.5 -43t42.5 -18z" />
    <glyph glyph-name="semicolon" unicode=";" horiz-adv-x="205" 
d="M77 106l-67 -276l52 -14l96 265zM103 392q25 0 42.5 18t17.5 43q0 24 -17.5 41.5t-42.5 17.5t-42.5 -17.5t-17.5 -41.5q0 -25 17.5 -43t42.5 -18z" />
    <glyph glyph-name="less" unicode="&#x3c;" horiz-adv-x="500" 
d="M44 222l413 -232v73l-335 191l335 191v73l-413 -232v-64z" />
    <glyph glyph-name="equal" unicode="=" horiz-adv-x="500" 
d="M457 384h-413v-70h413v70zM457 194h-413v-70h413v70z" />
    <glyph glyph-name="greater" unicode="&#x3e;" horiz-adv-x="500" 
d="M457 286l-413 232v-73l335 -191l-335 -191v-73l413 232v64z" />
    <glyph glyph-name="question" unicode="?" horiz-adv-x="341" 
d="M211 178v160q37 0 59 19.5t31.5 49.5t12 61t2.5 70q0 53 -4 90.5t-19 68.5t-45.5 49t-80.5 18q-44 0 -71 -14t-40 -39t-17 -55.5t-5 -75.5v-12h94v18q0 45 8 68.5t35 23.5q16 0 26 -12t15 -33t6.5 -46t1.5 -60q0 -29 -1.5 -49t-8.5 -37t-22.5 -27t-41.5 -10l-23 1v-227
h88zM166 -8q25 0 42.5 17.5t17.5 42.5t-17.5 42.5t-42.5 17.5t-42.5 -17.5t-17.5 -42.5t17.5 -42.5t42.5 -17.5z" />
    <glyph glyph-name="at" unicode="@" horiz-adv-x="800" 
d="M334 211q-37 0 -56 26.5t-19 66.5q0 36 12 77.5t35 78.5t55 60t70 23q32 0 50 -19.5t18 -49.5q0 -31 -12 -76t-34 -88t-52.5 -71t-66.5 -28zM545 540q-15 33 -46.5 50.5t-68.5 17.5q-54 0 -101 -28t-81 -74t-52.5 -101t-18.5 -106q0 -64 39 -108.5t103 -44.5
q32 0 65 13.5t56 37.5q8 -26 33.5 -39.5t54.5 -13.5q51 0 96 28t78 73.5t51 97.5t18 98q0 69 -28 128.5t-78 103.5t-113.5 67.5t-132.5 23.5q-80 0 -151 -29.5t-125 -82.5t-84.5 -123t-30.5 -148q0 -81 29.5 -153t83 -125t125 -83t152.5 -30q102 0 192.5 51.5t138.5 139.5
h-63q-43 -62 -115 -95.5t-153 -33.5q-67 0 -126.5 24.5t-104.5 68t-70 102.5t-25 126q0 68 24 128t68 105t103.5 70.5t128.5 25.5q58 0 110.5 -17.5t93.5 -50.5t64 -81t23 -108q0 -56 -16.5 -102.5t-42.5 -79t-54 -49.5t-52 -17q-13 0 -21.5 8.5t-8.5 21.5q0 9 4 23t9 29
l104 309h-69z" />
    <glyph glyph-name="A" unicode="A" horiz-adv-x="414" 
d="M168 754l-164 -754h98l28 147h150l28 -147h101l-162 754h-79zM265 225h-120l60 383h2l38 -274z" />
    <glyph glyph-name="B" unicode="B" horiz-adv-x="418" 
d="M156 342q65 0 87 -32.5t22 -100.5q0 -64 -23 -94t-86 -30v257zM181 0q102 0 146 50t44 156q0 70 -23 114t-83 63v2q55 14 75 58t20 109q0 102 -38.5 152t-135.5 50h-125v-754h120zM262 556q0 -32 -4 -55.5t-14.5 -41.5t-32 -27.5t-55.5 -9.5v247h17q48 0 68.5 -31.5
t20.5 -81.5z" />
    <glyph glyph-name="C" unicode="C" horiz-adv-x="369" 
d="M353 742q-21 12 -40.5 17t-46.5 5q-72 0 -118 -38.5t-68.5 -98.5t-30 -125.5t-7.5 -136.5q0 -70 8.5 -133t32.5 -118.5t71 -89.5t119 -34q47 0 80 21v88q-28 -15 -60 -15q-48 0 -78 28.5t-44.5 73t-18.5 90.5t-4 96q0 54 3 98.5t16.5 91t43 77.5t78.5 31q26 0 64 -19v91z
" />
    <glyph glyph-name="D" unicode="D" horiz-adv-x="466" 
d="M61 754v-754h69q80 0 130 9.5t87.5 44t57.5 109t20 201.5q0 136 -21.5 217t-57 118t-75.5 46t-98 9h-112zM319 364q0 -69 -4 -115t-19 -83.5t-47.5 -59t-87.5 -21.5v584q54 0 86.5 -24.5t47.5 -66.5t19.5 -92.5t4.5 -121.5z" />
    <glyph glyph-name="E" unicode="E" horiz-adv-x="347" 
d="M61 754v-754h269v87h-169v256h151v87h-151v237h169v87h-269z" />
    <glyph glyph-name="F" unicode="F" horiz-adv-x="342" 
d="M61 754v-754h100v343h154v87h-154v237h171v87h-271z" />
    <glyph glyph-name="G" unicode="G" horiz-adv-x="460" 
d="M238 398v-87h84v-41q0 -64 -7 -102.5t-19 -56t-26 -22.5t-34 -5q-19 0 -34 10t-27.5 40t-19.5 89.5t-7 152.5q0 79 2.5 129.5t11 88t26.5 57t48 19.5q42 0 59.5 -25.5t26.5 -73.5l95 39q-20 78 -63 116t-121 38q-63 0 -101.5 -29.5t-58 -82t-25.5 -119t-6 -158.5
q0 -91 7 -157.5t27.5 -118t60.5 -80.5t105 -29q59 0 96 27.5t55 72.5t24 97t6 117q0 23 -1 44v38v12h-184z" />
    <glyph glyph-name="H" unicode="H" horiz-adv-x="473" 
d="M61 754v-754h100v373h151v-373h100v754h-100v-294h-151v294h-100z" />
    <glyph glyph-name="I" unicode="I" horiz-adv-x="222" 
d="M161 754h-100v-754h100v754z" />
    <glyph glyph-name="J" unicode="J" horiz-adv-x="303" 
d="M242 754h-100v-562q0 -26 -1.5 -42.5t-8 -31t-20.5 -23.5t-38 -9q-15 0 -29.5 6.5t-33.5 17.5l-3 2v-102q18 -10 41 -15t45 -5q47 0 77 15t45 41.5t20.5 60.5t5.5 80v567z" />
    <glyph glyph-name="K" unicode="K" horiz-adv-x="424" 
d="M61 754v-754h102v382l141 -382h115l-160 389l148 365h-103l-141 -362v362h-102z" />
    <glyph glyph-name="L" unicode="L" horiz-adv-x="331" 
d="M61 754v-754h268v87h-168v667h-100z" />
    <glyph glyph-name="M" unicode="M" horiz-adv-x="561" 
d="M86 754l-62 -754h95l29 520h2l97 -520h69l78 412l17 108h2l2 -99l6 -140l18 -281h98l-70 754h-88l-65 -332l-30 -181l-3 -31h-2l-107 544h-86z" />
    <glyph glyph-name="N" unicode="N" horiz-adv-x="472" 
d="M140 579l2 2l176 -581h93v754h-100v-269l24 -302l-2 -2l-176 573h-96v-754h100v277l-15 253z" />
    <glyph glyph-name="O" unicode="O" horiz-adv-x="476" 
d="M238 764q-68 0 -109 -38.5t-59.5 -97.5t-23 -118t-4.5 -133t4.5 -133t23 -118t59.5 -97.5t109 -38.5t109 38.5t59.5 97.5t23 118t4.5 133t-4.5 133t-23 118t-59.5 97.5t-109 38.5zM238 670q29 0 47 -22.5t27 -61.5t12.5 -90t3.5 -119t-3.5 -119t-12.5 -90t-27 -61.5
t-47 -22.5t-47 22.5t-27 61.5t-12.5 90t-3.5 119t3.5 119t12.5 90t27 61.5t47 22.5z" />
    <glyph glyph-name="P" unicode="P" horiz-adv-x="388" 
d="M161 0v334q118 0 167 52.5t49 165.5q0 69 -17.5 111t-45.5 61t-59.5 24.5t-73.5 5.5h-120v-754h100zM175 669q53 0 74.5 -34t21.5 -91q0 -63 -21.5 -94t-74.5 -31h-7h-7v250h14z" />
    <glyph glyph-name="Q" unicode="Q" horiz-adv-x="479" 
d="M457 -12l-68 94q15 30 24 66.5t13.5 76.5t6 77t1.5 75q0 74 -4.5 133t-23 118t-59.5 97.5t-109 38.5t-109 -38.5t-59.5 -97.5t-23 -118t-4.5 -133t4.5 -133t23 -118t59.5 -97.5t109 -38.5q63 0 101 31l53 -79zM238 670q29 0 47 -22.5t27 -61.5t12.5 -90t3.5 -119
q0 -80 -11 -192h-2l-38 54l-61 -48l63 -91q-14 -16 -41 -16q-29 0 -47 22.5t-27 61.5t-12.5 90t-3.5 119t3.5 119t12.5 90t27 61.5t47 22.5z" />
    <glyph glyph-name="R" unicode="R" horiz-adv-x="416" 
d="M61 0h100v369h2l136 -369h104l-139 367q30 5 50 25t32 48.5t17 59.5t5 61q0 66 -17.5 106.5t-45.5 59t-57.5 23t-66.5 4.5h-120v-754zM161 420v249h16q27 0 44.5 -10t26 -27.5t11.5 -40t3 -52.5q0 -58 -23 -88.5t-78 -30.5z" />
    <glyph glyph-name="S" unicode="S" horiz-adv-x="354" 
d="M294 739q-42 25 -106 25q-81 0 -125 -54.5t-44 -138.5q0 -37 9.5 -69t26 -57t35 -45t45.5 -46q48 -46 71.5 -80t23.5 -81q0 -45 -22 -75t-66 -30q-27 0 -50 10t-49 29v-101q23 -18 51 -27t59 -9q80 0 128.5 57t48.5 140q0 71 -24.5 116.5t-82.5 104.5l-76 83
q-15 20 -21.5 38.5t-6.5 43.5q0 40 24.5 68.5t64.5 28.5q24 0 43.5 -8t41.5 -24z" />
    <glyph glyph-name="T" unicode="T" horiz-adv-x="323" 
d="M-4 754v-87h118v-667h100v667h113v87h-331z" />
    <glyph glyph-name="U" unicode="U" horiz-adv-x="467" 
d="M61 754v-520q0 -59 5.5 -101t22.5 -74.5t52.5 -50.5t92.5 -18q61 0 97 20t52.5 53t20 68.5t3.5 87.5v535h-100v-564q-1 -55 -15 -80.5t-61 -25.5q-34 0 -52 24.5t-18 92.5v553h-100z" />
    <glyph glyph-name="V" unicode="V" horiz-adv-x="387" 
d="M7 754l146 -754h80l148 754h-95l-46 -266l-40 -254l-5 -47h-2l-86 567h-100z" />
    <glyph glyph-name="W" unicode="W" horiz-adv-x="592" 
d="M2 754l130 -754h82l60 357l22 203h2l1 -19l23 -190l57 -351h80l132 754h-97l-46 -320l-27 -242h-2l-82 562h-78l-52 -314l-30 -253h-2l-4 56l-71 511h-98z" />
    <glyph glyph-name="X" unicode="X" horiz-adv-x="427" 
d="M33 754l134 -371l-143 -383h108l62 195q18 56 19 87h2q4 -33 13 -64t24 -75l4 -11l46 -132h102l-139 383l139 371h-102l-53 -168l-27 -104h-2q-8 49 -40 138l-48 134h-99z" />
    <glyph glyph-name="Y" unicode="Y" horiz-adv-x="392" 
d="M2 754l149 -429v-325h100v325l140 429h-107l-64 -252l-16 -97h-2l-92 349h-108z" />
    <glyph glyph-name="Z" unicode="Z" horiz-adv-x="393" 
d="M42 754v-87h202l-229 -667h348v87h-215l227 667h-333z" />
    <glyph glyph-name="bracketleft" unicode="[" horiz-adv-x="300" 
d="M38 754v-857h219v68h-133v721h133v68h-219z" />
    <glyph glyph-name="backslash" unicode="\" horiz-adv-x="250" 
d="M-108 830l385 -933h81l-387 933h-79z" />
    <glyph glyph-name="bracketright" unicode="]" horiz-adv-x="300" 
d="M43 754v-68h133v-721h-133v-68h219v857h-219z" />
    <glyph glyph-name="asciicircum" unicode="^" horiz-adv-x="500" 
d="M225 754l-181 -417h66l139 324l141 -324h67l-183 417h-49z" />
    <glyph glyph-name="underscore" unicode="_" horiz-adv-x="500" 
d="M0 -75v-50h500v50h-500z" />
    <glyph glyph-name="grave" unicode="`" horiz-adv-x="280" 
d="M66 703l99 -135l50 29l-82 149z" />
    <glyph glyph-name="a" unicode="a" horiz-adv-x="380" 
d="M187 76q-20 0 -33 14.5t-19 39t-8 53.5t-2 70t2 69.5t8 53t19 39t33 14.5t32 -16.5t18 -43.5t7.5 -55t1.5 -61t-1.5 -61.5t-7.5 -55t-18 -43.5t-32 -17zM243 0h94v505h-94v-56h-2q-14 30 -36.5 47t-53.5 17q-42 0 -67.5 -26t-37 -65t-14.5 -78.5t-3 -84.5q0 -46 3 -86.5
t14 -82.5t36 -70t66 -28q38 0 57.5 18t35.5 55h2v-65z" />
    <glyph glyph-name="b" unicode="b" horiz-adv-x="380" 
d="M43 0h94v65h2q16 -37 35.5 -55t57.5 -18q41 0 66 28t36 70.5t14 82.5t3 86q0 45 -3 84.5t-14.5 78.5t-37 65t-67.5 26q-34 0 -54 -16t-36 -48h-2v381h-94v-830zM193 76q-20 0 -32 17t-18 43.5t-7.5 55t-1.5 61.5t1.5 61.5t7.5 55t18 43t32 16.5t33 -14.5t19 -39t8 -53
t2 -69.5t-2 -69.5t-8 -53t-19 -39.5t-33 -15z" />
    <glyph glyph-name="c" unicode="c" horiz-adv-x="278" 
d="M254 496q-35 17 -75 17q-49 0 -79.5 -25t-45.5 -64.5t-20 -83t-5 -92.5q0 -45 5.5 -88t20.5 -81t45.5 -62.5t77.5 -24.5q42 0 76 20v87q-13 -10 -23.5 -14.5t-24.5 -4.5q-28 0 -44.5 19t-24.5 47t-10 56t-2 55q0 28 2 54t10 52.5t25.5 44t45.5 17.5q29 -1 44 -24h2v95z
" />
    <glyph glyph-name="d" unicode="d" horiz-adv-x="380" 
d="M243 0h94v830h-94v-381h-2q-16 32 -36 48t-54 16q-42 0 -67.5 -26t-37 -65t-14.5 -78.5t-3 -84.5q0 -46 3 -86.5t14 -82.5t36 -70t66 -28q37 0 57 18t36 55h2v-65zM187 76q-20 0 -33 14.5t-19 39t-8 53.5t-2 70t2 69.5t8 53t19 39t33 14.5t32 -16.5t18 -43.5t7.5 -55
t1.5 -61t-1.5 -61.5t-7.5 -55t-18 -43.5t-32 -17z" />
    <glyph glyph-name="e" unicode="e" horiz-adv-x="361" 
d="M125 301q0 27 1.5 48t7 39.5t16.5 29.5t30 11q20 0 32 -13.5t17.5 -33.5t6.5 -39t1 -42h-112zM333 234v15q0 47 -5.5 91t-21 83.5t-47 64.5t-79.5 25q-49 0 -80 -25t-46 -64.5t-20 -82.5t-5 -92t5 -91.5t20.5 -80.5t47 -61.5t81.5 -23.5q39 0 67 14t46 40q34 47 34 124
h-87q0 -16 -2.5 -32.5t-9 -30.5t-18 -22.5t-29.5 -8.5q-20 0 -32.5 15.5t-18 40t-7 50t-1.5 52.5h208z" />
    <glyph glyph-name="f" unicode="f" horiz-adv-x="249" 
d="M21 505v-74h47v-431h94v431h78v74h-78v152q0 42 8 61.5t36 19.5q17 0 39 -12v98q-33 14 -63 14q-38 0 -61.5 -13.5t-34.5 -37.5t-14.5 -52t-3.5 -67v-163h-47z" />
    <glyph glyph-name="g" unicode="g" horiz-adv-x="382" 
d="M245 250v-14q1 -23 1 -26q0 -24 -2.5 -47t-8.5 -42.5t-17.5 -32t-30.5 -12.5q-21 0 -33.5 16t-18.5 42.5t-8 55t-2 65.5q0 34 2 63.5t7.5 54.5t18 40.5t31.5 15.5q21 0 34 -20.5t18.5 -49.5t7 -55.5t1.5 -53.5zM339 505h-95v-58l-2 -2q-17 34 -37 51t-55 17
q-42 0 -67.5 -26.5t-36.5 -67t-14 -80.5t-3 -90q0 -46 3 -86t14.5 -79.5t37.5 -65.5t68 -26q35 0 57.5 18.5t32.5 49.5h2v-84q0 -56 -10.5 -81.5t-46.5 -25.5q-31 0 -45.5 21t-14.5 55h-91v-14q0 -70 40 -108t109 -38q40 0 68 8.5t47 30.5t29 64t10 108v509z" />
    <glyph glyph-name="h" unicode="h" horiz-adv-x="388" 
d="M44 830v-830h94v315q0 57 10.5 85.5t46.5 28.5q33 0 44.5 -22.5t11.5 -57.5v-349h94v347q0 38 -2.5 64.5t-12 50t-31 37.5t-57.5 14t-60.5 -17t-41.5 -49h-2v383h-94z" />
    <glyph glyph-name="i" unicode="i" horiz-adv-x="180" 
d="M137 505h-94v-505h94v505zM91 595q25 0 43.5 18.5t18.5 44.5t-18.5 44t-43.5 18q-26 0 -44.5 -18t-18.5 -44t18.5 -44.5t44.5 -18.5z" />
    <glyph glyph-name="j" unicode="j" horiz-adv-x="180" 
d="M137 505h-94v-712h94v712zM91 595q26 0 44 18t18 44q0 25 -18.5 43.5t-43.5 19.5q-26 0 -44.5 -18t-18.5 -44t18.5 -44.5t44.5 -18.5z" />
    <glyph glyph-name="k" unicode="k" horiz-adv-x="395" 
d="M44 830v-830h94v268h2l130 -268h109l-146 281l129 224h-105l-117 -224h-2v549h-94z" />
    <glyph glyph-name="l" unicode="l" horiz-adv-x="180" 
d="M137 830h-94v-830h94v830z" />
    <glyph glyph-name="m" unicode="m" horiz-adv-x="590" 
d="M138 505h-95v-505h94v321q0 8 1 13q0 22 1.5 36.5t7 28t17 22t30.5 8.5q34 0 43.5 -20.5t10.5 -61.5v-4v-343h94v321q0 57 11 82.5t49 25.5q31 0 41 -20t10 -55v-354h94v391q0 57 -24.5 89.5t-86.5 32.5q-37 0 -62.5 -18t-41.5 -52h-2q-7 33 -32 51.5t-59 18.5
q-35 0 -59.5 -18.5t-39.5 -51.5h-2v62z" />
    <glyph glyph-name="n" unicode="n" horiz-adv-x="388" 
d="M138 505h-94v-505h94v315q0 57 10.5 85.5t46.5 28.5q33 0 44.5 -22.5t11.5 -57.5v-349h94v347q0 37 -2.5 63.5t-12.5 50.5t-31 38t-57 14t-60.5 -17t-41.5 -49h-2v58z" />
    <glyph glyph-name="o" unicode="o" horiz-adv-x="375" 
d="M188 -8q51 0 83.5 24t48.5 62.5t21.5 81t5.5 91.5q0 50 -5.5 93.5t-21.5 82t-48.5 62.5t-83.5 24t-83.5 -24t-48.5 -62.5t-21.5 -82t-5.5 -93.5q0 -49 5.5 -91.5t21.5 -81t48.5 -62.5t83.5 -24zM188 78q-21 0 -33.5 14t-19 38.5t-8.5 54t-2 66.5q0 38 2 68.5t8.5 55
t19 38.5t33.5 14t33.5 -14t19 -38.5t8.5 -55t2 -68.5q0 -37 -2 -67t-8.5 -53.5t-19 -38t-33.5 -14.5z" />
    <glyph glyph-name="p" unicode="p" horiz-adv-x="380" 
d="M193 76q-20 0 -32 16.5t-18 43.5t-7.5 55t-1.5 61q0 34 1.5 62t7.5 55t18 43.5t32 16.5t33 -14.5t19 -39t8 -53.5t2 -70q0 -39 -1.5 -68t-7.5 -53.5t-19 -39.5t-34 -15zM137 505h-94v-712h94v264h2q16 -33 35.5 -49t54.5 -16q42 0 67.5 26t37 65t14.5 79t3 85
q0 46 -3 86.5t-14 82t-36 69.5t-66 28q-36 0 -57 -18.5t-36 -54.5h-2v65z" />
    <glyph glyph-name="q" unicode="q" horiz-adv-x="380" 
d="M187 76q-20 0 -33 14.5t-19 39t-8 53.5t-2 69q0 41 2 70t8 53.5t19 39t33 14.5t32 -16.5t18 -43.5t7.5 -55t1.5 -62q0 -33 -1.5 -61t-7.5 -55t-18 -43.5t-32 -16.5zM337 505h-94v-65h-2q-15 36 -35.5 54.5t-57.5 18.5q-41 0 -66 -27.5t-36 -70t-14 -82.5t-3 -86
q0 -45 3 -85t14.5 -79t37 -65t67.5 -26q35 0 55 16t35 49h2v-264h94v712z" />
    <glyph glyph-name="r" unicode="r" horiz-adv-x="269" 
d="M138 505h-94v-505h95v318q0 51 21 77t71 26l16 -1v93q-38 0 -64 -18t-43 -52h-2v62z" />
    <glyph glyph-name="s" unicode="s" horiz-adv-x="276" 
d="M234 491q-37 22 -85 22q-60 0 -97.5 -39t-37.5 -99q0 -52 24 -82.5t68 -64.5q34 -25 50 -43.5t16 -44.5q0 -30 -16.5 -47t-46.5 -17q-22 0 -40 8t-38 24v-92q22 -13 40 -18.5t42 -5.5q67 0 106 41.5t39 108.5q0 54 -24 85.5t-70 64.5q-32 23 -47.5 40.5t-16.5 42.5
q0 25 18.5 39.5t45.5 14.5q17 0 36.5 -7.5t33.5 -19.5v89z" />
    <glyph glyph-name="t" unicode="t" horiz-adv-x="221" 
d="M63 648v-143h-51v-74h51v-431h94v431h50v74h-50v143h-94z" />
    <glyph glyph-name="u" unicode="u" horiz-adv-x="389" 
d="M44 505v-321q0 -48 5.5 -82t22 -58.5t47.5 -38t81 -13.5q82 0 114 44t32 128v341h-94v-321q0 -56 -10 -81t-46 -25q-37 0 -47.5 27t-10.5 84v316h-94z" />
    <glyph glyph-name="v" unicode="v" horiz-adv-x="358" 
d="M13 505l137 -505h62l133 505h-91l-31 -148l-37 -204l-3 -30h-2l-68 382h-100z" />
    <glyph glyph-name="w" unicode="w" horiz-adv-x="487" 
d="M-3 505l123 -505h65l37 190l22 181h2l10 -112l51 -259h64l119 505h-92l-33 -174l-26 -188h-2v10l-57 352h-67l-39 -205l-22 -157h-2v10l-54 352h-99z" />
    <glyph glyph-name="x" unicode="x" horiz-adv-x="395" 
d="M14 505l126 -238l-126 -267h98l40 94l3 7q14 34 21.5 57t9.5 47h2q4 -28 28 -84l5 -12l50 -109h111l-138 267l114 238h-98l-41 -98l-24 -75l-71 173h-110z" />
    <glyph glyph-name="y" unicode="y" horiz-adv-x="373" 
d="M4 505l134 -464l-78 -248h99l206 712h-95l-85 -352h-2l-74 352h-105z" />
    <glyph glyph-name="z" unicode="z" horiz-adv-x="335" 
d="M27 505v-84h162l-175 -421h298v84h-160l169 421h-294z" />
    <glyph glyph-name="braceleft" unicode="{" horiz-adv-x="258" 
d="M2 301q39 -5 64 -22t26 -59v-188q0 -73 34 -102.5t98 -29.5h31v57q-43 4 -61 22.5t-18 64.5v159q0 53 -19.5 82.5t-74.5 40.5v2q55 11 74.5 40.5t19.5 82.5v159q0 46 18 64.5t61 22.5v57h-31q-64 0 -98 -29.5t-34 -102.5v-188q-1 -42 -26 -59t-64 -22v-52z" />
    <glyph glyph-name="bar" unicode="|" horiz-adv-x="250" 
d="M90 786v-1000h70v1000h-70z" />
    <glyph glyph-name="braceright" unicode="}" horiz-adv-x="258" 
d="M3 -100h31q64 0 98 29.5t34 102.5v188q1 42 26 59t64 22v52q-39 5 -64 22t-26 59v188q0 73 -34 102.5t-98 29.5h-31v-57q43 -4 61 -22.5t18 -64.5v-159q0 -53 19.5 -82.5t74.5 -40.5v-2q-55 -11 -74.5 -40.5t-19.5 -82.5v-159q0 -46 -18 -64.5t-61 -22.5v-57z" />
    <glyph glyph-name="asciitilde" unicode="~" horiz-adv-x="500" 
d="M161 331q-39 0 -66 -32t-51 -86l34 -48l1 1q18 42 36 65.5t46 23.5q15 0 29 -5.5t34 -16.5l6 -3l14 -7q33 -17 56.5 -27t40.5 -10q38 0 66.5 31.5t49.5 79.5l-34 47q-15 -34 -35.5 -58.5t-45.5 -24.5q-12 0 -28 7t-43 21l-14 7q-28 16 -52 25.5t-44 9.5z" />
    <glyph glyph-name="exclamdown" unicode="&#xa1;" horiz-adv-x="252" 
d="M126 557q-25 0 -42.5 -17.5t-17.5 -41.5q0 -25 17.5 -43t42.5 -18t42.5 18t17.5 43q0 24 -17.5 41.5t-42.5 17.5zM77 -205h100v573h-100v-573z" />
    <glyph glyph-name="cent" unicode="&#xa2;" 
d="M220 51h45v65q29 1 48 13v83q-2 -1 -3 -1q-23 -10 -35 -10q-25 0 -41 18.5t-23 47t-9 54.5t-2 55q0 30 1.5 56t8.5 52t22.5 44t41.5 18q23 0 39 -13v89q-18 7 -46 11v72h-47v-70q-40 -8 -65.5 -35.5t-37.5 -66t-15.5 -77.5t-3.5 -84q0 -53 3 -90.5t15 -71.5t37 -59
t67 -37v-63z" />
    <glyph glyph-name="sterling" unicode="&#xa3;" 
d="M114 125q-34 0 -61.5 -27t-31.5 -62l77 -31q3 14 12 24t22 10q18 0 60 -20q27 -13 48 -20.5t45 -7.5q40 0 66.5 25.5t40.5 67.5l-82 27q-5 -15 -13.5 -24.5t-22.5 -9.5q-12 0 -24.5 5t-30.5 15q-13 7 -14 8q25 49 25 115q0 34 -11 67h91v39h-97q-6 16 -17 42
q-28 71 -43 119.5t-15 96.5q0 43 24 70t67 27q42 0 60 -28t18 -76l78 38q-3 69 -44.5 108.5t-110.5 39.5q-90 0 -139 -53.5t-49 -144.5q0 -55 16.5 -104t49.5 -120l7 -15h-74v-39h88q10 -27 15 -46.5t5 -42.5q0 -39 -20 -74z" />
    <glyph glyph-name="currency" unicode="&#xa4;" 
d="M-16 110l47 -53l39 43q32 -25 63.5 -37.5t67.5 -12.5q78 0 139 50l40 -43l47 53l-38 42q22 37 32 70t10 73q0 46 -10 82.5t-32 73.5l38 43l-47 53l-40 -43q-63 49 -131 49q-80 0 -139 -49l-39 43l-47 -53l39 -43q-23 -36 -33 -71t-10 -80q0 -42 10.5 -77t32.5 -71z
M209 481q33 0 60.5 -14.5t47.5 -39t31 -57t11 -67.5q0 -77 -44.5 -129t-111.5 -52q-31 0 -59 14t-48.5 38.5t-32 57t-11.5 68.5q0 78 43 129.5t114 51.5z" />
    <glyph glyph-name="yen" unicode="&#xa5;" 
d="M268 0v264h118v50h-118v11l22 71h96v50h-81l95 308h-107l-60 -252l-14 -96h-2l-98 348h-108l113 -308h-74v-50h92l26 -71v-11h-118v-50h118v-264h100z" />
    <glyph glyph-name="brokenbar" unicode="&#xa6;" horiz-adv-x="250" 
d="M90 661v-250h70v250h-70zM90 161v-250h70v250h-70z" />
    <glyph glyph-name="section" unicode="&#xa7;" horiz-adv-x="415" 
d="M234 220l-3 2q-47 26 -72 50.5t-25 65.5q0 26 11 46t33 39l24 -12l4 -2q47 -22 71.5 -43.5t24.5 -62.5q0 -28 -14 -50.5t-38 -41.5zM370 598q-3 76 -43 121t-115 45q-70 0 -112.5 -44.5t-42.5 -115.5q0 -44 13.5 -79.5t46.5 -57.5q-40 -22 -59.5 -58.5t-19.5 -83.5
q1 -35 10.5 -60.5t24.5 -43t33.5 -30t51.5 -31.5q5 -3 16 -9l3 -1q49 -28 75 -53.5t26 -68.5q0 -35 -15.5 -57.5t-48.5 -22.5q-35 0 -47.5 27.5t-12.5 67.5h-102v-19q0 -78 44 -120t122 -42q77 0 117.5 44.5t40.5 121.5q0 41 -13.5 72t-43.5 55q37 25 58 68.5t21 90.5
q-3 57 -36 98.5t-106 71.5q-52 19 -76 42.5t-24 70.5q0 13 1.5 25.5t6.5 25t17 21.5t32 9q29 0 40 -22t15 -58h102z" />
    <glyph glyph-name="dieresis" unicode="&#xa8;" horiz-adv-x="280" 
d="M61 604q23 0 39 17.5t16 40.5q0 22 -16.5 38.5t-38.5 16.5q-25 0 -41.5 -17t-16.5 -41t17 -39.5t41 -15.5zM222 604q24 0 39.5 17.5t15.5 40.5q0 22 -16.5 38.5t-38.5 16.5q-25 0 -41.5 -17t-16.5 -41t17 -39.5t41 -15.5z" />
    <glyph glyph-name="copyright" unicode="&#xa9;" horiz-adv-x="800" 
d="M401 -10q79 0 149.5 29.5t124 83t83.5 124.5t30 151q0 79 -30 149.5t-83.5 124t-124 83t-149.5 29.5t-150 -29.5t-124.5 -83t-83.5 -124t-30 -149.5q0 -80 30 -151t83.5 -124.5t124.5 -83t150 -29.5zM76 377q0 67 24.5 126t69.5 104t104.5 69.5t126.5 24.5
q68 0 127.5 -24.5t103.5 -69.5t68.5 -104t24.5 -126t-24 -126.5t-68.5 -104t-104 -69t-127.5 -24.5t-127.5 24.5t-104 69t-69 103.5t-24.5 127zM533 307q-4 -46 -36.5 -72t-78.5 -26q-72 0 -111.5 49.5t-39.5 123.5q0 75 38 122t111 47q45 0 78 -25t39 -69h65
q-12 68 -62 107.5t-121 39.5q-97 0 -155 -63t-58 -160q0 -47 15.5 -88.5t44 -72t68.5 -47.5t88 -17q69 0 121 42t59 109h-65z" />
    <glyph glyph-name="ordfeminine" unicode="&#xaa;" horiz-adv-x="172" 
d="M125 759v-33h-1q-10 18 -24 28t-35 10q-27 0 -43.5 -15.5t-24 -39t-9.5 -47t-2 -50.5q0 -29 2 -53t9 -49t23 -42t43 -17q24 0 37 11t23 33h2v-39h61v303h-61zM88 714q13 0 21 -10.5t12 -27t5 -33t1 -35.5t-1 -36t-5 -33.5t-12 -27t-21 -10.5q-25 0 -32.5 28.5t-7.5 78.5
q0 49 7.5 77.5t32.5 28.5z" />
    <glyph glyph-name="guillemotleft" unicode="&#xab;" horiz-adv-x="357" 
d="M145 260l119 -224l44 25l-104 199l115 195l-45 27zM26 260l119 -224l44 25l-104 199l115 195l-45 27z" />
    <glyph glyph-name="logicalnot" unicode="&#xac;" horiz-adv-x="500" 
d="M387 117h70v267h-413v-70h343v-197z" />
    <glyph glyph-name="minus" unicode="&#xad;" horiz-adv-x="500" 
d="M44 221h413v70h-413v-70z" />
    <glyph glyph-name="minus" unicode="&#x2212;" horiz-adv-x="500" 
d="M44 221h413v70h-413v-70z" />
    <glyph glyph-name="registered" unicode="&#xae;" horiz-adv-x="800" 
d="M401 -10q79 0 149.5 29.5t124 83t83.5 124.5t30 151q0 79 -30 149.5t-83.5 124t-124 83t-149.5 29.5t-150 -29.5t-124.5 -83t-83.5 -124t-30 -149.5q0 -80 30 -151t83.5 -124.5t124.5 -83t150 -29.5zM401 53q-68 0 -127.5 24.5t-104 69t-69 103.5t-24.5 127
q0 67 24.5 126t69.5 104t104.5 69.5t126.5 24.5q68 0 127.5 -24.5t103.5 -69.5t68.5 -104t24.5 -126t-24 -126.5t-68.5 -104t-104 -69t-127.5 -24.5zM454 357q62 2 99.5 30.5t37.5 91.5q0 29 -13.5 54.5t-36.5 38.5q-21 16 -45 20t-60 4h-190v-435h61v196h84l123 -196h70z
M307 404v145h117q49 0 77 -13.5t28 -54.5q0 -49 -35 -63t-113 -14h-74z" />
    <glyph glyph-name="macron" unicode="&#xaf;" horiz-adv-x="280" 
d="M297 657v58h-313v-58h313z" />
    <glyph glyph-name="degree" unicode="&#xb0;" horiz-adv-x="400" 
d="M200 754q-30 0 -57.5 -11.5t-48 -32.5t-32.5 -48.5t-12 -57.5q0 -31 11.5 -58t32.5 -48t48.5 -32.5t57.5 -11.5t57.5 11.5t48.5 32t32.5 48t11.5 58.5q0 30 -11.5 57.5t-32.5 48.5t-48.5 32.5t-57.5 11.5zM200 692q36 0 62 -26t26 -62q0 -37 -26 -62.5t-62 -25.5
t-62 25.5t-26 62.5q0 36 26 62t62 26z" />
    <glyph glyph-name="plusminus" unicode="&#xb1;" horiz-adv-x="500" 
d="M215 351h-171v-70h171v-159h70v159h172v70h-172v156h-70v-156zM44 2h413v70h-413v-70z" />
    <glyph glyph-name="twosuperior" unicode="&#xb2;" horiz-adv-x="247" 
d="M126 763q-35 0 -57 -10.5t-33 -29t-14.5 -41.5t-3.5 -55v-17h73v12q0 41 6.5 63t28.5 22q21 0 30 -15.5t9 -36.5q0 -28 -9.5 -56.5t-25.5 -61.5l-107 -209l-8 -23h219v56h-122l42 69q16 28 30 54.5t27 56t20.5 58t7.5 52.5q0 55 -26.5 83.5t-86.5 28.5z" />
    <glyph glyph-name="threesuperior" unicode="&#xb3;" horiz-adv-x="247" 
d="M171 539q36 10 47 38t11 69q0 55 -23 86t-82 31q-56 0 -78 -25.5t-22 -72.5q0 -2 1 -12v-12l-4 -4h69v13q0 23 7.5 40t28.5 17q22 0 27.5 -20t5.5 -50q0 -40 -13 -54.5t-54 -14.5h-8v-54h19q34 0 46 -20.5t12 -54.5q0 -16 -1 -28.5t-4.5 -25.5t-12.5 -21.5t-24 -8.5
q-19 0 -28.5 13t-9.5 35v15h-69v-14q0 -52 25 -78.5t82 -26.5q64 0 89.5 36.5t25.5 98.5q0 42 -12 69t-51 34v2z" />
    <glyph glyph-name="acute" unicode="&#xb4;" horiz-adv-x="280" 
d="M215 703l-67 43l-82 -149l50 -29z" />
    <glyph glyph-name="mu" unicode="&#xb5;" horiz-adv-x="388" 
d="M251 505v-349q0 -35 -11.5 -57.5t-44.5 -22.5q-36 0 -46.5 28.5t-10.5 85.5v315h-94v-709h94v262h2q17 -32 41.5 -49t60.5 -17t57.5 14t31 37.5t12 50t2.5 64.5v347h-94z" />
    <glyph glyph-name="paragraph" unicode="&#xb6;" horiz-adv-x="440" 
d="M157 -112h79v799h76v-799h79v866h-208q-46 -1 -75 -9.5t-56 -38.5q-24 -27 -38 -65.5t-14 -80.5q0 -38 12.5 -72.5t34.5 -61t50.5 -41.5t59.5 -15v-482z" />
    <glyph glyph-name="periodcentered" unicode="&#xb7;" horiz-adv-x="205" 
d="M103 195q25 0 42.5 18t17.5 43q0 24 -17.5 41.5t-42.5 17.5t-42.5 -17.5t-17.5 -41.5q0 -25 17.5 -43t42.5 -18z" />
    <glyph glyph-name="periodcentered" unicode="&#x2219;" horiz-adv-x="205" 
d="M103 195q25 0 42.5 18t17.5 43q0 24 -17.5 41.5t-42.5 17.5t-42.5 -17.5t-17.5 -41.5q0 -25 17.5 -43t42.5 -18z" />
    <glyph glyph-name="cedilla" unicode="&#xb8;" horiz-adv-x="280" 
d="M138 -51l-62 -142l43 -23l85 133z" />
    <glyph glyph-name="onesuperior" unicode="&#xb9;" horiz-adv-x="247" 
d="M44 758v-54h48v-399h72v453h-120z" />
    <glyph glyph-name="ordmasculine" unicode="&#xba;" horiz-adv-x="172" 
d="M86 451q33 0 54 14t31.5 36.5t14 49t3.5 55.5q0 31 -3.5 57t-14 49t-31.5 37.5t-54 14.5t-54 -14.5t-31.5 -37.5t-14 -49t-3.5 -57q0 -29 3.5 -55t14.5 -49t31.5 -37t53.5 -14zM87 712q23 0 30.5 -27.5t7.5 -78.5q0 -48 -7 -75.5t-31 -27.5q-25 0 -32.5 27.5t-7.5 75.5
q0 49 7.5 77.5t32.5 28.5z" />
    <glyph glyph-name="guillemotright" unicode="&#xbb;" horiz-adv-x="357" 
d="M212 260l-129 222l-45 -27l115 -195l-104 -199l44 -25zM331 260l-129 222l-45 -27l115 -195l-104 -199l44 -25z" />
    <glyph glyph-name="onequarter" unicode="&#xbc;" horiz-adv-x="616" 
d="M44 758v-54h48v-399h72v453h-120zM561 453h-78l-132 -277v-54h140v-122h70v122h31v48h-31v283zM491 170h-81l79 190h2v-190zM465 754l-374 -754h62l374 754h-62z" />
    <glyph glyph-name="onehalf" unicode="&#xbd;" horiz-adv-x="616" 
d="M32 758v-58h48v-395h72v453h-120zM579 0v56h-122l42 69q16 28 30 54.5t27 56t20.5 58t7.5 52.5q0 55 -26.5 83.5t-86.5 28.5q-35 0 -57 -10.5t-33 -29t-14.5 -41.5t-3.5 -55v-17h73v12q0 41 6.5 63t28.5 22q21 0 30 -15.5t9 -36.5q0 -28 -9.5 -56.5t-25.5 -61.5
l-107 -209l-8 -23h219zM433 754l-374 -754h62l374 754h-62z" />
    <glyph glyph-name="threequarters" unicode="&#xbe;" horiz-adv-x="616" 
d="M487 122v-122h70v122h31v48h-31v283h-78l-132 -277v-54h140zM487 170h-81l79 190h2v-190zM485 754l-374 -754h62l374 754h-62zM134 763q-56 0 -78 -25.5t-22 -72.5q0 -2 1 -12v-12l-4 -4h69v13q0 23 7.5 40t28.5 17q22 0 27.5 -20t5.5 -50q0 -40 -13 -54.5t-54 -14.5h-8
v-54h19q34 0 46 -20.5t12 -54.5q0 -17 -1 -29.5t-4.5 -25t-12.5 -21t-24 -8.5q-19 0 -28.5 13t-9.5 35v15h-69v-14q0 -52 25 -78.5t82 -26.5q64 0 89.5 36.5t25.5 98.5q0 42 -12 69t-51 34v2q36 10 47 38t11 69q0 55 -23 86t-82 31z" />
    <glyph glyph-name="questiondown" unicode="&#xbf;" horiz-adv-x="341" 
d="M138 368v-160q-37 0 -58.5 -19.5t-31.5 -49.5t-12 -60t-2 -70q0 -53 4 -90t18.5 -67.5t44.5 -48.5t81 -18q44 0 71 14t40 39t17.5 55t5.5 74v14h-94v-18q0 -45 -7.5 -68.5t-33.5 -23.5q-16 0 -26.5 10.5t-16 28t-7 36.5t-1.5 40v22v12q0 31 1.5 51t8.5 36t22.5 25.5
t41.5 9.5l22 -1v227h-88zM183 557q-25 0 -42.5 -17.5t-17.5 -41.5q0 -25 17.5 -43t42.5 -18t42.5 18t17.5 43q0 24 -17.5 41.5t-42.5 17.5z" />
    <glyph glyph-name="Agrave" unicode="&#xc0;" horiz-adv-x="414" 
d="M118 922l99 -135l50 29l-82 149zM168 754l-164 -754h98l28 147h150l28 -147h101l-162 754h-79zM265 225h-120l60 383h2l38 -274z" />
    <glyph glyph-name="Aacute" unicode="&#xc1;" horiz-adv-x="414" 
d="M297 922l-67 43l-82 -149l50 -29zM168 754l-164 -754h98l28 147h150l28 -147h101l-162 754h-79zM265 225h-120l60 383h2l38 -274z" />
    <glyph glyph-name="Acircumflex" unicode="&#xc2;" horiz-adv-x="414" 
d="M209 969l-126 -140l52 -38l72 83l78 -83l47 38zM168 754l-164 -754h98l28 147h150l28 -147h101l-162 754h-79zM265 225h-120l60 383h2l38 -274z" />
    <glyph glyph-name="Atilde" unicode="&#xc3;" horiz-adv-x="414" 
d="M277 936q-1 -13 -4.5 -21t-14.5 -8q-14 0 -40 14q-17 9 -30.5 14t-30.5 5q-38 0 -56 -28.5t-19 -70.5h61q0 28 22 28q12 0 40 -14q34 -18 54 -18q39 0 56.5 28t17.5 71h-56zM168 754l-164 -754h98l28 147h150l28 -147h101l-162 754h-79zM265 225h-120l60 383h2l38 -274z
" />
    <glyph glyph-name="Adieresis" unicode="&#xc4;" horiz-adv-x="414" 
d="M128 823q23 0 39 17.5t16 40.5q0 22 -16.5 38.5t-38.5 16.5q-25 0 -41.5 -17t-16.5 -41t17 -39.5t41 -15.5zM289 823q24 0 39.5 17.5t15.5 40.5q0 22 -16.5 38.5t-38.5 16.5q-25 0 -41.5 -17t-16.5 -41t17 -39.5t41 -15.5zM168 754l-164 -754h98l28 147h150l28 -147h101
l-162 754h-79zM265 225h-120l60 383h2l38 -274z" />
    <glyph glyph-name="Aring" unicode="&#xc5;" horiz-adv-x="414" 
d="M209 782q32 0 56 24t24 55q0 35 -24 59.5t-58 24.5t-57.5 -24.5t-23.5 -59.5q0 -34 24.5 -56.5t58.5 -22.5zM209 829q-15 0 -25.5 9.5t-10.5 23.5q0 15 9.5 25.5t24.5 10.5q16 0 25.5 -10.5t9.5 -25.5q0 -13 -10 -23t-23 -10zM168 754l-164 -754h98l28 147h150l28 -147
h101l-162 754h-79zM265 225h-120l60 383h2l38 -274z" />
    <glyph glyph-name="AE" unicode="&#xc6;" horiz-adv-x="566" 
d="M160 754l-160 -754h98l28 147h157l30 -147h262l-20 87h-161l-58 254h149l-19 87h-149l-52 239h164l-19 87h-250zM268 225h-127l60 386h2l32 -227z" />
    <glyph glyph-name="Ccedilla" unicode="&#xc7;" horiz-adv-x="369" 
d="M353 742q-21 12 -40.5 17t-46.5 5q-72 0 -118 -38.5t-68.5 -98.5t-30 -125.5t-7.5 -136.5q0 -70 8.5 -133t32.5 -118.5t71 -89.5t119 -34q47 0 80 21v88q-28 -15 -60 -15q-48 0 -78 28.5t-44.5 73t-18.5 90.5t-4 96q0 54 3 98.5t16.5 91t43 77.5t78.5 31q26 0 64 -19v91z
M213 -51l-62 -142l43 -23l85 133z" />
    <glyph glyph-name="Egrave" unicode="&#xc8;" horiz-adv-x="347" 
d="M100 922l99 -135l50 29l-82 149zM61 754v-754h269v87h-169v256h151v87h-151v237h169v87h-269z" />
    <glyph glyph-name="Eacute" unicode="&#xc9;" horiz-adv-x="347" 
d="M294 922l-67 43l-82 -149l50 -29zM61 754v-754h269v87h-169v256h151v87h-151v237h169v87h-269z" />
    <glyph glyph-name="Ecircumflex" unicode="&#xca;" horiz-adv-x="347" 
d="M188 969l-126 -140l52 -38l72 83l78 -83l47 38zM61 754v-754h269v87h-169v256h151v87h-151v237h169v87h-269z" />
    <glyph glyph-name="Edieresis" unicode="&#xcb;" horiz-adv-x="347" 
d="M110 823q23 0 39 17.5t16 40.5q0 22 -16.5 38.5t-38.5 16.5q-25 0 -41.5 -17t-16.5 -41t17 -39.5t41 -15.5zM271 823q24 0 39.5 17.5t15.5 40.5q0 22 -16.5 38.5t-38.5 16.5q-25 0 -41.5 -17t-16.5 -41t17 -39.5t41 -15.5zM61 754v-754h269v87h-169v256h151v87h-151v237
h169v87h-269z" />
    <glyph glyph-name="Igrave" unicode="&#xcc;" horiz-adv-x="222" 
d="M22 922l99 -135l50 29l-82 149zM161 754h-100v-754h100v754z" />
    <glyph glyph-name="Iacute" unicode="&#xcd;" horiz-adv-x="222" 
d="M201 922l-67 43l-82 -149l50 -29zM161 754h-100v-754h100v754z" />
    <glyph glyph-name="Icircumflex" unicode="&#xce;" horiz-adv-x="222" 
d="M113 969l-126 -140l52 -38l72 83l78 -83l47 38zM161 754h-100v-754h100v754z" />
    <glyph glyph-name="Idieresis" unicode="&#xcf;" horiz-adv-x="222" 
d="M32 823q23 0 39 17.5t16 40.5q0 22 -16.5 38.5t-38.5 16.5q-25 0 -41.5 -17t-16.5 -41t17 -39.5t41 -15.5zM193 823q24 0 39.5 17.5t15.5 40.5q0 22 -16.5 38.5t-38.5 16.5q-25 0 -41.5 -17t-16.5 -41t17 -39.5t41 -15.5zM161 754h-100v-754h100v754z" />
    <glyph glyph-name="Eth" unicode="&#xd0;" horiz-adv-x="466" 
d="M61 430h-70v-87h70v-343h69q78 0 126 8.5t87 43t60.5 109.5t21.5 203q0 133 -20 213t-54 117.5t-75.5 48.5t-102.5 11h-112v-324zM161 669q56 0 89 -25.5t47.5 -68t18 -90t3.5 -121.5q0 -71 -3.5 -115t-18 -82t-47 -60t-89.5 -22v258h70v87h-70v239z" />
    <glyph glyph-name="Ntilde" unicode="&#xd1;" horiz-adv-x="472" 
d="M306 936q-1 -13 -4.5 -21t-14.5 -8q-14 0 -40 14q-17 9 -30.5 14t-30.5 5q-38 0 -56 -28.5t-19 -70.5h61q0 28 22 28q12 0 40 -14q34 -18 54 -18q39 0 56.5 28t17.5 71h-56zM140 579l2 2l176 -581h93v754h-100v-269l24 -302l-2 -2l-176 573h-96v-754h100v277l-15 253z
" />
    <glyph glyph-name="Ograve" unicode="&#xd2;" horiz-adv-x="476" 
d="M139 922l99 -135l50 29l-82 149zM238 764q-68 0 -109 -38.5t-59.5 -97.5t-23 -118t-4.5 -133t4.5 -133t23 -118t59.5 -97.5t109 -38.5t109 38.5t59.5 97.5t23 118t4.5 133t-4.5 133t-23 118t-59.5 97.5t-109 38.5zM238 670q29 0 47 -22.5t27 -61.5t12.5 -90t3.5 -119
t-3.5 -119t-12.5 -90t-27 -61.5t-47 -22.5t-47 22.5t-27 61.5t-12.5 90t-3.5 119t3.5 119t12.5 90t27 61.5t47 22.5z" />
    <glyph glyph-name="Oacute" unicode="&#xd3;" horiz-adv-x="476" 
d="M338 922l-67 43l-82 -149l50 -29zM238 764q-68 0 -109 -38.5t-59.5 -97.5t-23 -118t-4.5 -133t4.5 -133t23 -118t59.5 -97.5t109 -38.5t109 38.5t59.5 97.5t23 118t4.5 133t-4.5 133t-23 118t-59.5 97.5t-109 38.5zM238 670q29 0 47 -22.5t27 -61.5t12.5 -90t3.5 -119
t-3.5 -119t-12.5 -90t-27 -61.5t-47 -22.5t-47 22.5t-27 61.5t-12.5 90t-3.5 119t3.5 119t12.5 90t27 61.5t47 22.5z" />
    <glyph glyph-name="Ocircumflex" unicode="&#xd4;" horiz-adv-x="476" 
d="M240 969l-126 -140l52 -38l72 83l78 -83l47 38zM238 764q-68 0 -109 -38.5t-59.5 -97.5t-23 -118t-4.5 -133t4.5 -133t23 -118t59.5 -97.5t109 -38.5t109 38.5t59.5 97.5t23 118t4.5 133t-4.5 133t-23 118t-59.5 97.5t-109 38.5zM238 670q29 0 47 -22.5t27 -61.5
t12.5 -90t3.5 -119t-3.5 -119t-12.5 -90t-27 -61.5t-47 -22.5t-47 22.5t-27 61.5t-12.5 90t-3.5 119t3.5 119t12.5 90t27 61.5t47 22.5z" />
    <glyph glyph-name="Otilde" unicode="&#xd5;" horiz-adv-x="476" 
d="M308 936q-1 -13 -4.5 -21t-14.5 -8q-14 0 -40 14q-17 9 -30.5 14t-30.5 5q-38 0 -56 -28.5t-19 -70.5h61q0 28 22 28q12 0 40 -14q34 -18 54 -18q39 0 56.5 28t17.5 71h-56zM238 764q-68 0 -109 -38.5t-59.5 -97.5t-23 -118t-4.5 -133t4.5 -133t23 -118t59.5 -97.5
t109 -38.5t109 38.5t59.5 97.5t23 118t4.5 133t-4.5 133t-23 118t-59.5 97.5t-109 38.5zM238 670q29 0 47 -22.5t27 -61.5t12.5 -90t3.5 -119t-3.5 -119t-12.5 -90t-27 -61.5t-47 -22.5t-47 22.5t-27 61.5t-12.5 90t-3.5 119t3.5 119t12.5 90t27 61.5t47 22.5z" />
    <glyph glyph-name="Odieresis" unicode="&#xd6;" horiz-adv-x="476" 
d="M159 823q23 0 39 17.5t16 40.5q0 22 -16.5 38.5t-38.5 16.5q-25 0 -41.5 -17t-16.5 -41t17 -39.5t41 -15.5zM320 823q24 0 39.5 17.5t15.5 40.5q0 22 -16.5 38.5t-38.5 16.5q-25 0 -41.5 -17t-16.5 -41t17 -39.5t41 -15.5zM238 764q-68 0 -109 -38.5t-59.5 -97.5
t-23 -118t-4.5 -133t4.5 -133t23 -118t59.5 -97.5t109 -38.5t109 38.5t59.5 97.5t23 118t4.5 133t-4.5 133t-23 118t-59.5 97.5t-109 38.5zM238 670q29 0 47 -22.5t27 -61.5t12.5 -90t3.5 -119t-3.5 -119t-12.5 -90t-27 -61.5t-47 -22.5t-47 22.5t-27 61.5t-12.5 90
t-3.5 119t3.5 119t12.5 90t27 61.5t47 22.5z" />
    <glyph glyph-name="multiply" unicode="&#xd7;" horiz-adv-x="500" 
d="M201 254l-157 -157l48 -49l158 157l157 -157l50 49l-157 157l157 157l-49 50l-158 -158l-156 157l-50 -49z" />
    <glyph glyph-name="Oslash" unicode="&#xd8;" horiz-adv-x="476" 
d="M151 260q-3 54 -3 117q0 68 3.5 119t12.5 90t27 61.5t47 22.5q28 0 46 -21.5t28 -63.5zM325 485q3 -51 3 -108q0 -68 -3.5 -119t-12.5 -90t-27 -61.5t-47 -22.5q-27 0 -44.5 20t-27.5 58zM21 -4l51 -23l38 76q21 -28 53 -43.5t75 -15.5q68 0 109 38.5t59.5 97.5t23 118
t4.5 133q0 79 -5.5 144.5t-26.5 119.5l53 109l-50 23l-36 -72q-22 30 -54.5 46.5t-76.5 16.5q-68 0 -109 -38.5t-59.5 -97.5t-23 -118t-4.5 -133q0 -82 6 -148t28 -121z" />
    <glyph glyph-name="Ugrave" unicode="&#xd9;" horiz-adv-x="467" 
d="M130 922l99 -135l50 29l-82 149zM61 754v-520q0 -59 5.5 -101t22.5 -74.5t52.5 -50.5t92.5 -18q61 0 97 20t52.5 53t20 68.5t3.5 87.5v535h-100v-564q-1 -55 -15 -80.5t-61 -25.5q-34 0 -52 24.5t-18 92.5v553h-100z" />
    <glyph glyph-name="Uacute" unicode="&#xda;" horiz-adv-x="467" 
d="M339 922l-67 43l-82 -149l50 -29zM61 754v-520q0 -59 5.5 -101t22.5 -74.5t52.5 -50.5t92.5 -18q61 0 97 20t52.5 53t20 68.5t3.5 87.5v535h-100v-564q-1 -55 -15 -80.5t-61 -25.5q-34 0 -52 24.5t-18 92.5v553h-100z" />
    <glyph glyph-name="Ucircumflex" unicode="&#xdb;" horiz-adv-x="467" 
d="M236 969l-126 -140l52 -38l72 83l78 -83l47 38zM61 754v-520q0 -59 5.5 -101t22.5 -74.5t52.5 -50.5t92.5 -18q61 0 97 20t52.5 53t20 68.5t3.5 87.5v535h-100v-564q-1 -55 -15 -80.5t-61 -25.5q-34 0 -52 24.5t-18 92.5v553h-100z" />
    <glyph glyph-name="Udieresis" unicode="&#xdc;" horiz-adv-x="467" 
d="M155 823q23 0 39 17.5t16 40.5q0 22 -16.5 38.5t-38.5 16.5q-25 0 -41.5 -17t-16.5 -41t17 -39.5t41 -15.5zM316 823q24 0 39.5 17.5t15.5 40.5q0 22 -16.5 38.5t-38.5 16.5q-25 0 -41.5 -17t-16.5 -41t17 -39.5t41 -15.5zM61 754v-520q0 -59 5.5 -101t22.5 -74.5
t52.5 -50.5t92.5 -18q61 0 97 20t52.5 53t20 68.5t3.5 87.5v535h-100v-564q-1 -55 -15 -80.5t-61 -25.5q-34 0 -52 24.5t-18 92.5v553h-100z" />
    <glyph glyph-name="Yacute" unicode="&#xdd;" horiz-adv-x="392" 
d="M311 922l-67 43l-82 -149l50 -29zM2 754l149 -429v-325h100v325l140 429h-107l-64 -252l-16 -97h-2l-92 349h-108z" />
    <glyph glyph-name="Thorn" unicode="&#xde;" horiz-adv-x="396" 
d="M175 519q53 0 74.5 -34t21.5 -91q0 -63 -21.5 -94t-74.5 -31h-7h-7v250h14zM161 754h-100v-754h100v184q118 0 167 52.5t49 165.5q0 70 -18 111.5t-48 60.5t-65 24.5t-85 5.5v150z" />
    <glyph glyph-name="germandbls" unicode="&#xdf;" horiz-adv-x="425" 
d="M64 505h-43v-74h43v-431h94v638q0 26 2 45.5t7.5 35.5t17.5 25.5t31 9.5t31.5 -9.5t19 -24t8.5 -29.5t2 -30q0 -53 -16 -79t-69 -26v-84q35 0 56 -16t30.5 -43.5t12.5 -61t3 -80.5q0 -109 -12.5 -147.5t-65.5 -39.5h-14v-84h33q53 0 84.5 17t46.5 50.5t19.5 81.5t4.5 128
q0 48 -2 83.5t-10.5 67.5t-26.5 55.5t-49 31.5v2q22 7 36.5 24t22 38.5t10 43t2.5 42.5q0 89 -37 131t-124 42q-46 0 -75.5 -14t-45 -39t-21.5 -58.5t-6 -79.5v-142z" />
    <glyph glyph-name="agrave" unicode="&#xe0;" horiz-adv-x="380" 
d="M96 703l99 -135l50 29l-82 149zM187 76q-20 0 -33 14.5t-19 39t-8 53.5t-2 70t2 69.5t8 53t19 39t33 14.5t32 -16.5t18 -43.5t7.5 -55t1.5 -61t-1.5 -61.5t-7.5 -55t-18 -43.5t-32 -17zM243 0h94v505h-94v-56h-2q-14 30 -36.5 47t-53.5 17q-42 0 -67.5 -26t-37 -65
t-14.5 -78.5t-3 -84.5q0 -46 3 -86.5t14 -82.5t36 -70t66 -28q38 0 57.5 18t35.5 55h2v-65z" />
    <glyph glyph-name="aacute" unicode="&#xe1;" horiz-adv-x="380" 
d="M295 703l-67 43l-82 -149l50 -29zM187 76q-20 0 -33 14.5t-19 39t-8 53.5t-2 70t2 69.5t8 53t19 39t33 14.5t32 -16.5t18 -43.5t7.5 -55t1.5 -61t-1.5 -61.5t-7.5 -55t-18 -43.5t-32 -17zM243 0h94v505h-94v-56h-2q-14 30 -36.5 47t-53.5 17q-42 0 -67.5 -26t-37 -65
t-14.5 -78.5t-3 -84.5q0 -46 3 -86.5t14 -82.5t36 -70t66 -28q38 0 57.5 18t35.5 55h2v-65z" />
    <glyph glyph-name="acircumflex" unicode="&#xe2;" horiz-adv-x="380" 
d="M192 750l-126 -140l52 -38l72 83l78 -83l47 38zM187 76q-20 0 -33 14.5t-19 39t-8 53.5t-2 70t2 69.5t8 53t19 39t33 14.5t32 -16.5t18 -43.5t7.5 -55t1.5 -61t-1.5 -61.5t-7.5 -55t-18 -43.5t-32 -17zM243 0h94v505h-94v-56h-2q-14 30 -36.5 47t-53.5 17
q-42 0 -67.5 -26t-37 -65t-14.5 -78.5t-3 -84.5q0 -46 3 -86.5t14 -82.5t36 -70t66 -28q38 0 57.5 18t35.5 55h2v-65z" />
    <glyph glyph-name="atilde" unicode="&#xe3;" horiz-adv-x="380" 
d="M260 717q-1 -13 -4.5 -21t-14.5 -8q-14 0 -40 14q-17 9 -30.5 14t-30.5 5q-38 0 -56 -28.5t-19 -70.5h61q0 28 22 28q12 0 40 -14q34 -18 54 -18q39 0 56.5 28t17.5 71h-56zM187 76q-20 0 -33 14.5t-19 39t-8 53.5t-2 70t2 69.5t8 53t19 39t33 14.5t32 -16.5t18 -43.5
t7.5 -55t1.5 -61t-1.5 -61.5t-7.5 -55t-18 -43.5t-32 -17zM243 0h94v505h-94v-56h-2q-14 30 -36.5 47t-53.5 17q-42 0 -67.5 -26t-37 -65t-14.5 -78.5t-3 -84.5q0 -46 3 -86.5t14 -82.5t36 -70t66 -28q38 0 57.5 18t35.5 55h2v-65z" />
    <glyph glyph-name="adieresis" unicode="&#xe4;" horiz-adv-x="380" 
d="M111 604q23 0 39 17.5t16 40.5q0 22 -16.5 38.5t-38.5 16.5q-25 0 -41.5 -17t-16.5 -41t17 -39.5t41 -15.5zM272 604q24 0 39.5 17.5t15.5 40.5q0 22 -16.5 38.5t-38.5 16.5q-25 0 -41.5 -17t-16.5 -41t17 -39.5t41 -15.5zM187 76q-20 0 -33 14.5t-19 39t-8 53.5t-2 70
t2 69.5t8 53t19 39t33 14.5t32 -16.5t18 -43.5t7.5 -55t1.5 -61t-1.5 -61.5t-7.5 -55t-18 -43.5t-32 -17zM243 0h94v505h-94v-56h-2q-14 30 -36.5 47t-53.5 17q-42 0 -67.5 -26t-37 -65t-14.5 -78.5t-3 -84.5q0 -46 3 -86.5t14 -82.5t36 -70t66 -28q38 0 57.5 18t35.5 55h2
v-65z" />
    <glyph glyph-name="aring" unicode="&#xe5;" horiz-adv-x="380" 
d="M192 583q32 0 56 24t24 55q0 35 -24 59.5t-58 24.5t-57.5 -24.5t-23.5 -59.5q0 -34 24.5 -56.5t58.5 -22.5zM192 630q-15 0 -25.5 9.5t-10.5 23.5q0 15 9.5 25.5t24.5 10.5q16 0 25.5 -10.5t9.5 -25.5q0 -13 -10 -23t-23 -10zM187 76q-20 0 -33 14.5t-19 39t-8 53.5
t-2 70t2 69.5t8 53t19 39t33 14.5t32 -16.5t18 -43.5t7.5 -55t1.5 -61t-1.5 -61.5t-7.5 -55t-18 -43.5t-32 -17zM243 0h94v505h-94v-56h-2q-14 30 -36.5 47t-53.5 17q-42 0 -67.5 -26t-37 -65t-14.5 -78.5t-3 -84.5q0 -46 3 -86.5t14 -82.5t36 -70t66 -28q38 0 57.5 18
t35.5 55h2v-65z" />
    <glyph glyph-name="ae" unicode="&#xe6;" horiz-adv-x="561" 
d="M439 301h-114v22q0 17 2 35.5t8 35.5t18 28t30 11t29 -11.5t17 -28.5t8 -35.5t2 -34.5v-22zM533 233v33q0 45 -5.5 86.5t-21.5 78t-46.5 59.5t-77.5 23q-73 0 -107 -65q-15 34 -46 49.5t-72 15.5q-29 0 -53 -6t-50 -20v-93q46 29 96 29q45 0 62.5 -20.5t20.5 -64.5v-43
l-2 -2q-12 17 -33.5 25t-45.5 8q-36 0 -60.5 -15.5t-38 -41t-19 -56.5t-5.5 -64q0 -70 29.5 -113.5t96.5 -43.5q82 0 111 79q15 -40 46.5 -59.5t76.5 -19.5q39 0 66.5 14.5t44 39.5t24 57t8.5 70h-89v-18q0 -32 -13 -57.5t-42 -25.5q-21 0 -34 13t-19 33.5t-7.5 40.5
t-2.5 50q-1 17 -1 24h209zM179 252q34 0 47 -26t13 -65q0 -38 -12.5 -66t-46.5 -28q-18 0 -29.5 9t-17.5 23.5t-8 30t-2 34.5q0 37 12 62.5t44 25.5z" />
    <glyph glyph-name="ccedilla" unicode="&#xe7;" horiz-adv-x="278" 
d="M254 496q-35 17 -75 17q-49 0 -79.5 -25t-45.5 -64.5t-20 -83t-5 -92.5q0 -45 5.5 -88t20.5 -81t45.5 -62.5t77.5 -24.5q42 0 76 20v87q-13 -10 -23.5 -14.5t-24.5 -4.5q-28 0 -44.5 19t-24.5 47t-10 56t-2 55q0 28 2 54t10 52.5t25.5 44t45.5 17.5q29 -1 44 -24h2v95z
M152 -51l-62 -142l43 -23l85 133z" />
    <glyph glyph-name="egrave" unicode="&#xe8;" horiz-adv-x="361" 
d="M77 703l99 -135l50 29l-82 149zM125 301q0 27 1.5 48t7 39.5t16.5 29.5t30 11q20 0 32 -13.5t17.5 -33.5t6.5 -39t1 -42h-112zM333 234v15q0 47 -5.5 91t-21 83.5t-47 64.5t-79.5 25q-49 0 -80 -25t-46 -64.5t-20 -82.5t-5 -92t5 -91.5t20.5 -80.5t47 -61.5t81.5 -23.5
q39 0 67 14t46 40q34 47 34 124h-87q0 -16 -2.5 -32.5t-9 -30.5t-18 -22.5t-29.5 -8.5q-20 0 -32.5 15.5t-18 40t-7 50t-1.5 52.5h208z" />
    <glyph glyph-name="eacute" unicode="&#xe9;" horiz-adv-x="361" 
d="M286 703l-67 43l-82 -149l50 -29zM125 301q0 27 1.5 48t7 39.5t16.5 29.5t30 11q20 0 32 -13.5t17.5 -33.5t6.5 -39t1 -42h-112zM333 234v15q0 47 -5.5 91t-21 83.5t-47 64.5t-79.5 25q-49 0 -80 -25t-46 -64.5t-20 -82.5t-5 -92t5 -91.5t20.5 -80.5t47 -61.5t81.5 -23.5
q39 0 67 14t46 40q34 47 34 124h-87q0 -16 -2.5 -32.5t-9 -30.5t-18 -22.5t-29.5 -8.5q-20 0 -32.5 15.5t-18 40t-7 50t-1.5 52.5h208z" />
    <glyph glyph-name="ecircumflex" unicode="&#xea;" horiz-adv-x="361" 
d="M183 750l-126 -140l52 -38l72 83l78 -83l47 38zM125 301q0 27 1.5 48t7 39.5t16.5 29.5t30 11q20 0 32 -13.5t17.5 -33.5t6.5 -39t1 -42h-112zM333 234v15q0 47 -5.5 91t-21 83.5t-47 64.5t-79.5 25q-49 0 -80 -25t-46 -64.5t-20 -82.5t-5 -92t5 -91.5t20.5 -80.5
t47 -61.5t81.5 -23.5q39 0 67 14t46 40q34 47 34 124h-87q0 -16 -2.5 -32.5t-9 -30.5t-18 -22.5t-29.5 -8.5q-20 0 -32.5 15.5t-18 40t-7 50t-1.5 52.5h208z" />
    <glyph glyph-name="edieresis" unicode="&#xeb;" horiz-adv-x="361" 
d="M102 604q23 0 39 17.5t16 40.5q0 22 -16.5 38.5t-38.5 16.5q-25 0 -41.5 -17t-16.5 -41t17 -39.5t41 -15.5zM263 604q24 0 39.5 17.5t15.5 40.5q0 22 -16.5 38.5t-38.5 16.5q-25 0 -41.5 -17t-16.5 -41t17 -39.5t41 -15.5zM125 301q0 27 1.5 48t7 39.5t16.5 29.5t30 11
q20 0 32 -13.5t17.5 -33.5t6.5 -39t1 -42h-112zM333 234v15q0 47 -5.5 91t-21 83.5t-47 64.5t-79.5 25q-49 0 -80 -25t-46 -64.5t-20 -82.5t-5 -92t5 -91.5t20.5 -80.5t47 -61.5t81.5 -23.5q39 0 67 14t46 40q34 47 34 124h-87q0 -16 -2.5 -32.5t-9 -30.5t-18 -22.5
t-29.5 -8.5q-20 0 -32.5 15.5t-18 40t-7 50t-1.5 52.5h208z" />
    <glyph glyph-name="igrave" unicode="&#xec;" horiz-adv-x="180" 
d="M1 703l99 -135l50 29l-82 149zM43 505v-505h94v505h-94z" />
    <glyph glyph-name="iacute" unicode="&#xed;" horiz-adv-x="180" 
d="M180 703l-67 43l-82 -149l50 -29zM43 505v-505h94v505h-94z" />
    <glyph glyph-name="icircumflex" unicode="&#xee;" horiz-adv-x="180" 
d="M92 750l-126 -140l52 -38l72 83l78 -83l47 38zM43 505v-505h94v505h-94z" />
    <glyph glyph-name="idieresis" unicode="&#xef;" horiz-adv-x="180" 
d="M11 604q23 0 39 17.5t16 40.5q0 22 -16.5 38.5t-38.5 16.5q-25 0 -41.5 -17t-16.5 -41t17 -39.5t41 -15.5zM172 604q24 0 39.5 17.5t15.5 40.5q0 22 -16.5 38.5t-38.5 16.5q-25 0 -41.5 -17t-16.5 -41t17 -39.5t41 -15.5zM43 505v-505h94v505h-94z" />
    <glyph glyph-name="eth" unicode="&#xf0;" horiz-adv-x="375" 
d="M125 251q0 38 1.5 67.5t7.5 54.5t19 40t35 15t35.5 -15.5t19 -41t7 -52.5t1.5 -68q0 -42 -1.5 -69t-7 -51t-19 -38.5t-35.5 -14.5q-21 0 -33.5 13t-19 36t-8.5 52t-2 72zM94 590l74 36q24 -39 38.5 -71.5t26.5 -70.5q-12 7 -23 9t-26 2q-50 0 -81.5 -22.5t-47 -58.5
t-21 -77t-5.5 -86q0 -50 5.5 -93t21.5 -81t48.5 -61.5t83.5 -23.5t83.5 22.5t48.5 60.5t21.5 83.5t5.5 103.5q0 106 -25.5 209t-79.5 191l76 38l-32 50l-73 -38q-25 38 -45 66.5t-45 59.5l-75 -28q18 -22 42 -57t50 -77l-77 -36z" />
    <glyph glyph-name="ntilde" unicode="&#xf1;" horiz-adv-x="388" 
d="M258 717q-1 -13 -4.5 -21t-14.5 -8q-14 0 -40 14q-17 9 -30.5 14t-30.5 5q-38 0 -56 -28.5t-19 -70.5h61q0 28 22 28q12 0 40 -14q34 -18 54 -18q39 0 56.5 28t17.5 71h-56zM138 505h-94v-505h94v315q0 57 10.5 85.5t46.5 28.5q33 0 44.5 -22.5t11.5 -57.5v-349h94v347
q0 37 -2.5 63.5t-12.5 50.5t-31 38t-57 14t-60.5 -17t-41.5 -49h-2v58z" />
    <glyph glyph-name="ograve" unicode="&#xf2;" horiz-adv-x="375" 
d="M99 703l99 -135l50 29l-82 149zM188 -8q51 0 83.5 24t48.5 62.5t21.5 81t5.5 91.5q0 50 -5.5 93.5t-21.5 82t-48.5 62.5t-83.5 24t-83.5 -24t-48.5 -62.5t-21.5 -82t-5.5 -93.5q0 -49 5.5 -91.5t21.5 -81t48.5 -62.5t83.5 -24zM188 78q-21 0 -33.5 14t-19 38.5t-8.5 54
t-2 66.5q0 38 2 68.5t8.5 55t19 38.5t33.5 14t33.5 -14t19 -38.5t8.5 -55t2 -68.5q0 -37 -2 -67t-8.5 -53.5t-19 -38t-33.5 -14.5z" />
    <glyph glyph-name="oacute" unicode="&#xf3;" horiz-adv-x="375" 
d="M278 703l-67 43l-82 -149l50 -29zM188 -8q51 0 83.5 24t48.5 62.5t21.5 81t5.5 91.5q0 50 -5.5 93.5t-21.5 82t-48.5 62.5t-83.5 24t-83.5 -24t-48.5 -62.5t-21.5 -82t-5.5 -93.5q0 -49 5.5 -91.5t21.5 -81t48.5 -62.5t83.5 -24zM188 78q-21 0 -33.5 14t-19 38.5t-8.5 54
t-2 66.5q0 38 2 68.5t8.5 55t19 38.5t33.5 14t33.5 -14t19 -38.5t8.5 -55t2 -68.5q0 -37 -2 -67t-8.5 -53.5t-19 -38t-33.5 -14.5z" />
    <glyph glyph-name="ocircumflex" unicode="&#xf4;" horiz-adv-x="375" 
d="M190 750l-126 -140l52 -38l72 83l78 -83l47 38zM188 -8q51 0 83.5 24t48.5 62.5t21.5 81t5.5 91.5q0 50 -5.5 93.5t-21.5 82t-48.5 62.5t-83.5 24t-83.5 -24t-48.5 -62.5t-21.5 -82t-5.5 -93.5q0 -49 5.5 -91.5t21.5 -81t48.5 -62.5t83.5 -24zM188 78q-21 0 -33.5 14
t-19 38.5t-8.5 54t-2 66.5q0 38 2 68.5t8.5 55t19 38.5t33.5 14t33.5 -14t19 -38.5t8.5 -55t2 -68.5q0 -37 -2 -67t-8.5 -53.5t-19 -38t-33.5 -14.5z" />
    <glyph glyph-name="otilde" unicode="&#xf5;" horiz-adv-x="375" 
d="M258 717q-1 -13 -4.5 -21t-14.5 -8q-14 0 -40 14q-17 9 -30.5 14t-30.5 5q-38 0 -56 -28.5t-19 -70.5h61q0 28 22 28q12 0 40 -14q34 -18 54 -18q39 0 56.5 28t17.5 71h-56zM188 -8q51 0 83.5 24t48.5 62.5t21.5 81t5.5 91.5q0 50 -5.5 93.5t-21.5 82t-48.5 62.5
t-83.5 24t-83.5 -24t-48.5 -62.5t-21.5 -82t-5.5 -93.5q0 -49 5.5 -91.5t21.5 -81t48.5 -62.5t83.5 -24zM188 78q-21 0 -33.5 14t-19 38.5t-8.5 54t-2 66.5q0 38 2 68.5t8.5 55t19 38.5t33.5 14t33.5 -14t19 -38.5t8.5 -55t2 -68.5q0 -37 -2 -67t-8.5 -53.5t-19 -38
t-33.5 -14.5z" />
    <glyph glyph-name="odieresis" unicode="&#xf6;" horiz-adv-x="375" 
d="M109 604q23 0 39 17.5t16 40.5q0 22 -16.5 38.5t-38.5 16.5q-25 0 -41.5 -17t-16.5 -41t17 -39.5t41 -15.5zM270 604q24 0 39.5 17.5t15.5 40.5q0 22 -16.5 38.5t-38.5 16.5q-25 0 -41.5 -17t-16.5 -41t17 -39.5t41 -15.5zM188 -8q51 0 83.5 24t48.5 62.5t21.5 81
t5.5 91.5q0 50 -5.5 93.5t-21.5 82t-48.5 62.5t-83.5 24t-83.5 -24t-48.5 -62.5t-21.5 -82t-5.5 -93.5q0 -49 5.5 -91.5t21.5 -81t48.5 -62.5t83.5 -24zM188 78q-21 0 -33.5 14t-19 38.5t-8.5 54t-2 66.5q0 38 2 68.5t8.5 55t19 38.5t33.5 14t33.5 -14t19 -38.5t8.5 -55
t2 -68.5q0 -37 -2 -67t-8.5 -53.5t-19 -38t-33.5 -14.5z" />
    <glyph glyph-name="divide" unicode="&#xf7;" horiz-adv-x="500" 
d="M44 221h413v70h-413v-70zM289 407v100h-79v-100h79zM289 5v100h-79v-100h79z" />
    <glyph glyph-name="oslash" unicode="&#xf8;" horiz-adv-x="375" 
d="M140 119l108 190h2l1 -72q0 -35 -2 -63.5t-8 -51t-18 -35.5t-32 -13t-32 12t-19 33zM83 33q41 -41 105 -41q50 0 82 22t48.5 58t22.5 78.5t6 90.5q0 56 -5.5 101t-21.5 85l44 72l-40 24l-32 -51q-40 41 -107 41q-49 0 -81 -22.5t-48 -59.5t-21.5 -78.5t-5.5 -90.5
q0 -56 5.5 -100.5t23.5 -83.5l-39 -62l39 -25zM237 386l-107 -189h-2l-3 77q0 30 1.5 55t7.5 48t19 38.5t34 15.5t32 -11t18 -34z" />
    <glyph glyph-name="ugrave" unicode="&#xf9;" horiz-adv-x="389" 
d="M91 703l99 -135l50 29l-82 149zM44 505v-321q0 -48 5.5 -82t22 -58.5t47.5 -38t81 -13.5q82 0 114 44t32 128v341h-94v-321q0 -56 -10 -81t-46 -25q-37 0 -47.5 27t-10.5 84v316h-94z" />
    <glyph glyph-name="uacute" unicode="&#xfa;" horiz-adv-x="389" 
d="M300 703l-67 43l-82 -149l50 -29zM44 505v-321q0 -48 5.5 -82t22 -58.5t47.5 -38t81 -13.5q82 0 114 44t32 128v341h-94v-321q0 -56 -10 -81t-46 -25q-37 0 -47.5 27t-10.5 84v316h-94z" />
    <glyph glyph-name="ucircumflex" unicode="&#xfb;" horiz-adv-x="389" 
d="M197 750l-126 -140l52 -38l72 83l78 -83l47 38zM44 505v-321q0 -48 5.5 -82t22 -58.5t47.5 -38t81 -13.5q82 0 114 44t32 128v341h-94v-321q0 -56 -10 -81t-46 -25q-37 0 -47.5 27t-10.5 84v316h-94z" />
    <glyph glyph-name="udieresis" unicode="&#xfc;" horiz-adv-x="389" 
d="M116 604q23 0 39 17.5t16 40.5q0 22 -16.5 38.5t-38.5 16.5q-25 0 -41.5 -17t-16.5 -41t17 -39.5t41 -15.5zM277 604q24 0 39.5 17.5t15.5 40.5q0 22 -16.5 38.5t-38.5 16.5q-25 0 -41.5 -17t-16.5 -41t17 -39.5t41 -15.5zM44 505v-321q0 -48 5.5 -82t22 -58.5t47.5 -38
t81 -13.5q82 0 114 44t32 128v341h-94v-321q0 -56 -10 -81t-46 -25q-37 0 -47.5 27t-10.5 84v316h-94z" />
    <glyph glyph-name="yacute" unicode="&#xfd;" horiz-adv-x="373" 
d="M302 703l-67 43l-82 -149l50 -29zM4 505l134 -464l-78 -248h99l206 712h-95l-85 -352h-2l-74 352h-105z" />
    <glyph glyph-name="thorn" unicode="&#xfe;" horiz-adv-x="380" 
d="M193 76q-20 0 -32 16.5t-18 43.5t-7.5 55t-1.5 61q0 34 1.5 62t7.5 55t18 43.5t32 16.5t33 -14.5t19 -39t8 -53.5t2 -70q0 -39 -1.5 -68t-7.5 -53.5t-19 -39.5t-34 -15zM137 695h-94v-902h94v264h2q16 -33 35.5 -49t54.5 -16q42 0 67.5 26t37 65t14.5 79t3 85
q0 46 -3 86.5t-14 82t-36 69.5t-66 28q-36 0 -57 -18.5t-36 -54.5h-2v255z" />
    <glyph glyph-name="ydieresis" unicode="&#xff;" horiz-adv-x="373" 
d="M108 604q23 0 39 17.5t16 40.5q0 22 -16.5 38.5t-38.5 16.5q-25 0 -41.5 -17t-16.5 -41t17 -39.5t41 -15.5zM269 604q24 0 39.5 17.5t15.5 40.5q0 22 -16.5 38.5t-38.5 16.5q-25 0 -41.5 -17t-16.5 -41t17 -39.5t41 -15.5zM4 505l134 -464l-78 -248h99l206 712h-95
l-85 -352h-2l-74 352h-105z" />
    <glyph glyph-name="OE" unicode="&#x152;" horiz-adv-x="598" 
d="M423 667h167v87h-262v-59h-2q-27 69 -108 69q-60 0 -96 -36t-53 -94t-21.5 -120t-4.5 -141q0 -70 4 -127.5t20 -117t52.5 -99t97.5 -39.5q81 0 114 70h2v-60h262v87h-172v257h154v87h-154v236zM149 379q0 166 19 230q11 34 27.5 49t42.5 15q28 0 46.5 -18t28 -48
t13 -64.5t3.5 -72.5q0 -24 -1 -61q-1 -24 -1 -30q0 -78 -3 -128.5t-11.5 -88t-26.5 -57.5t-48 -20q-29 0 -47 25t-27 66.5t-12 90.5t-3 112z" />
    <glyph glyph-name="oe" unicode="&#x153;" horiz-adv-x="581" 
d="M342 307q0 60 11 93t45 33q21 0 33.5 -14t18 -35t6.5 -41t1 -44h-115v8zM553 234v15q0 49 -5 92.5t-20 83t-46 64t-81 24.5q-35 0 -64 -20.5t-41 -57.5h-2q-12 36 -41.5 57t-65.5 21q-49 0 -81 -22.5t-48.5 -59t-22.5 -79t-6 -89.5q0 -51 5 -95.5t20 -84.5t46.5 -65.5
t82.5 -25.5q41 1 67 20.5t43 59.5q18 -38 44 -58.5t64 -21.5q74 0 111 50.5t39 128.5h-86q0 -18 -2.5 -34t-8.5 -28q-15 -31 -49 -31q-20 0 -33 14.5t-19 36.5t-8 42.5t-4 47.5v9l-1 6h213zM125 252q0 35 2 64t8 54.5t19 41.5t34 16q20 0 33 -17t19 -43.5t7.5 -54.5t1.5 -61
q0 -32 -1.5 -60t-7.5 -54t-18.5 -43t-33.5 -17t-34 17.5t-19.5 44.5t-8 54t-1.5 58z" />
    <glyph glyph-name="Scaron" unicode="&#x160;" horiz-adv-x="354" 
d="M179 791l123 139l-47 39l-78 -83l-72 83l-52 -39zM294 739q-42 25 -106 25q-81 0 -125 -54.5t-44 -138.5q0 -37 9.5 -69t26 -57t35 -45t45.5 -46q48 -46 71.5 -80t23.5 -81q0 -45 -22 -75t-66 -30q-27 0 -50 10t-49 29v-101q23 -18 51 -27t59 -9q80 0 128.5 57t48.5 140
q0 71 -24.5 116.5t-82.5 104.5l-76 83q-15 20 -21.5 38.5t-6.5 43.5q0 40 24.5 68.5t64.5 28.5q24 0 43.5 -8t41.5 -24z" />
    <glyph glyph-name="scaron" unicode="&#x161;" horiz-adv-x="276" 
d="M140 572l123 139l-47 39l-78 -83l-72 83l-52 -39zM234 491q-37 22 -85 22q-60 0 -97.5 -39t-37.5 -99q0 -52 24 -82.5t68 -64.5q34 -25 50 -43.5t16 -44.5q0 -30 -16.5 -47t-46.5 -17q-22 0 -40 8t-38 24v-92q22 -13 40 -18.5t42 -5.5q67 0 106 41.5t39 108.5
q0 54 -24 85.5t-70 64.5q-32 23 -47.5 40.5t-16.5 42.5q0 25 18.5 39.5t45.5 14.5q17 0 36.5 -7.5t33.5 -19.5v89z" />
    <glyph glyph-name="Ydieresis" unicode="&#x178;" horiz-adv-x="392" 
d="M117 823q23 0 39 17.5t16 40.5q0 22 -16.5 38.5t-38.5 16.5q-25 0 -41.5 -17t-16.5 -41t17 -39.5t41 -15.5zM278 823q24 0 39.5 17.5t15.5 40.5q0 22 -16.5 38.5t-38.5 16.5q-25 0 -41.5 -17t-16.5 -41t17 -39.5t41 -15.5zM2 754l149 -429v-325h100v325l140 429h-107
l-64 -252l-16 -97h-2l-92 349h-108z" />
    <glyph glyph-name="florin" unicode="&#x192;" 
d="M286 508l22 110q6 31 12.5 54t17.5 42q12 21 30.5 29.5t45.5 8.5q23 0 41 -7l16 84q-27 7 -60 7q-49 0 -83.5 -15t-57 -43t-35.5 -64t-21 -85l-21 -121h-70l-9 -74h65l-53 -305q-8 -39 -17.5 -75.5t-20.5 -56.5q-19 -32 -44 -45t-65 -17h-19l-15 -84h24q58 0 111 22
t82 65q21 31 32.5 73t22.5 106l3 17l55 300h131l9 74h-129z" />
    <glyph glyph-name="circumflex" unicode="&#x2c6;" horiz-adv-x="280" 
d="M142 750l-126 -140l52 -38l72 83l78 -83l47 38z" />
    <glyph glyph-name="tilde" unicode="&#x2dc;" horiz-adv-x="280" 
d="M210 717q-1 -13 -4.5 -21t-14.5 -8q-14 0 -40 14q-17 9 -30.5 14t-30.5 5q-38 0 -56 -28.5t-19 -70.5h61q0 28 22 28q12 0 40 -14q34 -18 54 -18q39 0 56.5 28t17.5 71h-56z" />
    <glyph glyph-name="endash" unicode="&#x2013;" horiz-adv-x="500" 
d="M0 296v-74h500v74h-500z" />
    <glyph glyph-name="emdash" unicode="&#x2014;" horiz-adv-x="1000" 
d="M130 296v-74h740v74h-740z" />
    <glyph glyph-name="quoteleft" unicode="&#x2018;" horiz-adv-x="213" 
d="M108 474l67 275l-52 15l-96 -266z" />
    <glyph glyph-name="quoteright" unicode="&#x2019;" horiz-adv-x="213" 
d="M105 764l-67 -275l51 -14l97 265z" />
    <glyph glyph-name="quotesinglbase" unicode="&#x201a;" horiz-adv-x="213" 
d="M105 106l-67 -276l51 -14l97 265z" />
    <glyph glyph-name="quotedblleft" unicode="&#x201c;" horiz-adv-x="344" 
d="M239 474l67 275l-52 15l-96 -266zM102 474l67 275l-52 15l-96 -266z" />
    <glyph glyph-name="quotedblright" unicode="&#x201d;" horiz-adv-x="344" 
d="M105 764l-67 -275l51 -14l97 265zM242 764l-67 -275l51 -14l97 265z" />
    <glyph glyph-name="quotedblbase" unicode="&#x201e;" horiz-adv-x="344" 
d="M105 106l-67 -276l51 -14l97 265zM242 106l-67 -276l51 -14l97 265z" />
    <glyph glyph-name="dagger" unicode="&#x2020;" horiz-adv-x="359" 
d="M133 754v-249h-104v-82h104v-560h94v560h103v82h-103v249h-94z" />
    <glyph glyph-name="daggerdbl" unicode="&#x2021;" horiz-adv-x="359" 
d="M133 754v-229h-104v-82h104v-184h-104v-82h104v-314h94v314h103v82h-103v184h103v82h-103v229h-94z" />
    <glyph glyph-name="bullet" unicode="&#x2022;" horiz-adv-x="400" 
d="M12 377q0 -38 14.5 -72t40 -60t60 -41t72.5 -15q39 0 74 15t61 41t40.5 60.5t14.5 71.5q0 38 -14.5 72.5t-40.5 60.5t-61 41t-74 15q-38 0 -72 -14.5t-60 -41t-40.5 -61t-14.5 -72.5z" />
    <glyph glyph-name="ellipsis" unicode="&#x2026;" horiz-adv-x="1000" 
d="M167 -10q25 0 42.5 18t17.5 43q0 24 -17.5 41.5t-42.5 17.5t-42.5 -17.5t-17.5 -41.5q0 -25 17.5 -43t42.5 -18zM500 -10q25 0 42.5 18t17.5 43q0 24 -17.5 41.5t-42.5 17.5t-42.5 -17.5t-17.5 -41.5q0 -25 17.5 -43t42.5 -18zM833 -10q25 0 42.5 18t17.5 43
q0 24 -17.5 41.5t-42.5 17.5t-42.5 -17.5t-17.5 -41.5q0 -25 17.5 -43t42.5 -18z" />
    <glyph glyph-name="perthousand" unicode="&#x2030;" horiz-adv-x="817" 
d="M149 405q35 0 57 17t32.5 43.5t14 55.5t3.5 63t-3.5 63.5t-14 56t-32.5 43t-57 16.5t-57 -16.5t-32.5 -43t-14 -56t-3.5 -63.5t3.5 -63t14 -56t32.5 -43.5t57 -16.5zM149 465q-13 0 -21 10t-12 26.5t-5.5 36.5t-1.5 46q0 25 1.5 45t5.5 37t12 27t21 10t21.5 -10t12.5 -28
q6 -27 6 -81q0 -26 -1.5 -46t-5.5 -36.5t-12 -26.5t-21 -10zM432 754l-374 -754h62l374 754h-62zM403 349q-35 0 -57 -16.5t-32.5 -43t-14 -56t-3.5 -63.5t3.5 -63t14 -56t32.5 -43.5t57 -16.5t57 17t32.5 43.5t14 55.5t3.5 63t-3.5 63.5t-14 56t-32.5 43t-57 16.5zM403 51
q-13 0 -21 10t-12 26.5t-5.5 36.5t-1.5 46q0 25 1.5 45t5.5 37t12 27t21 10t21.5 -10t12.5 -28q6 -27 6 -81q0 -26 -1.5 -46t-5.5 -36.5t-12 -26.5t-21 -10zM667 349q-35 0 -57 -16.5t-32.5 -43t-14 -56t-3.5 -63.5t3.5 -63t14 -56t32.5 -43.5t57 -16.5t57 17t32.5 43.5
t14 55.5t3.5 63t-3.5 63.5t-14 56t-32.5 43t-57 16.5zM667 51q-13 0 -21 10t-12 26.5t-5.5 36.5t-1.5 46q0 25 1.5 45t5.5 37t12 27t21 10t21.5 -10t12.5 -28q6 -27 6 -81q0 -26 -1.5 -46t-5.5 -36.5t-12 -26.5t-21 -10z" />
    <glyph glyph-name="guilsinglleft" unicode="&#x2039;" horiz-adv-x="238" 
d="M26 260l119 -224l44 25l-104 199l115 195l-45 27z" />
    <glyph glyph-name="guilsinglright" unicode="&#x203a;" horiz-adv-x="238" 
d="M212 260l-129 222l-45 -27l115 -195l-104 -199l44 -25z" />
    <glyph glyph-name="trademark" unicode="&#x2122;" horiz-adv-x="750" 
d="M719 754h-88l-102 -297h-2l-98 297h-89v-421h55v361h2l115 -361h32l118 361h2v-361h55v421zM280 754h-280v-60h110v-361h61v361h109v60z" />
    </font>
</defs>
</svg>
